Скачать через торрент Чудо-Женщина: Родословная Wonder Woman: Bloodlines Фильм бесплатно в хорошем качестве torrent

Скачивайте на UnionPeer.org фильмы через торрент без регистрации. Новинки кино в хорошем качестве через торрент. На UnionPeer.org можно скачать через торрент фильмы 2014 и 2015 годов. Самые новые фильмы.

Скачать торрент Чудо-Женщина: Родословная Wonder Woman: Bloodlines бесплатно через .torrent фильм мультфильм сериал

Статистика раздачи
Размер:  2.98 GB   |    Зарегистрирован:  1 месяц   |    .torrent скачан:  130 раз   |   
Раздают:  1  
 

Скачать Чудо-Женщина: Родословная / Wonder Woman: Bloodlines (2019) WEB-DLRip 1080p | Flarrow Films через torrent

 
загрузка...
 
Автор Сообщение

Galfimbul

avatar Galfimbul


Чудо-Женщина: Родословная /Wonder Woman: Bloodlines

Год выхода: 2019
Жанр: мультфильм, боевик, фантастика
Режиссер: Justin Copeland, Сэм Лью
В ролях: Мари Авгеропулос, Розарио Доусон, Можан Марно, Джеффри Донован, Констанс Зиммер, Майкл Дорн, Кри Саммер, Ниа Вардалос, Эдриэнн С. Мур, Рэй Чейз

О фильме:
Когда принцесса Амазонки Диана из Темиссиры решит спасти летчика-истребителя Стива Тревора, это выбор, который изменит ее мир и наш. Исполняя роль как посла, так и защитника, Диана получает имя Чудо-Женщина от добрых людей Земли. Но ее сердце так же сильно, как и ее воля, так как она полна решимости помочь обеспокоенной и озлобленной молодой девушке, которая попала в смертельную организацию, известную только как Villainy Inc.

Страна: Япония
Продолжительность: 01:22:57
Перевод: Профессиональный (многоголосый, закадровый) | Flarrow Films

Файл
Формат: MKV
Кодек: MPEG-4 AVC
Качество: WEB-DLRip 1080p | Wonder.Woman.Bloodlines.2019.1080p.WEB-DL.DD5.1.H264-FGT
Видео: 1920x1080, 4 813 kb/s, 23.976 FPS, 8 bits
Звук: AC3, 320 kb/s, 2 channels, 48.0 kHz
Субтитры: отсутствуют
General
General
Unique ID : 192092844353157806271603111451086327405 (0x9083BC71539A7A36A642196F1D948E6D)
Complete name : [KORSARS]_Wonder.Woman.Bloodlines.WEB-DLRip1O8Op.Flarrow.Films.mkv
Format : Matroska
Format version : Version 4
File size : 2.98 GiB
Duration : 1 h 22 min
Overall bit rate : 5 135 kb/s
Movie name : Wonder.Woman.Bloodlines.2019.1080p.WEB-DL.DD5.1.H264-FGT
Encoded date : UTC 2019-10-16 14:04:33
Writing application : mkvmerge v32.0.0 ('Astral Progressions') 64-bit
Writing library : libebml v1.3.7 + libmatroska v1.5.0
Cover : Yes
Attachments : small_cover.jpg / small_cover_land.jpg / cover.jpg / cover_land.jpg

Video
ID : 1
Format : AVC
Format/Info : Advanced Video Codec
Format profile : High@L4
Format settings : CABAC / 4 Ref Frames
Format settings, CABAC : Yes
Format settings, Reference : 4 frames
Codec ID : V_MPEG4/ISO/AVC
Duration : 1 h 22 min
Bit rate : 4 813 kb/s
Width : 1 920 pixels
Height : 1 080 pixels
Display aspect ratio : 16:9
Frame rate mode : Constant
Frame rate : 23.976 FPS
Color space : YUV
Chroma subsampling : 4:2:0
Bit depth : 8 bits
Scan type : Progressive
Bits/(Pixel*Frame) : 0.097
Stream size : 2.79 GiB (94%)
Title : Wonder.Woman.Bloodlines.2019.1080p.WEB-DL.DD5.1.H264-FGT
Language : English
Default : Yes
Forced : No
Color range : Limited
Color primaries : BT.709
Transfer characteristics : BT.709
Matrix coefficients : BT.709

Audio
ID : 2
Format : AC-3
Format/Info : Audio Coding 3
Commercial name : Dolby Digital
Codec ID : A_AC3
Duration : 1 h 22 min
Bit rate mode : Constant
Bit rate : 320 kb/s
Channel(s) : 2 channels
Channel layout : L R
Sampling rate : 48.0 kHz
Frame rate : 31.250 FPS (1536 SPF)
Compression mode : Lossy
Stream size : 190 MiB (6%)
Service kind : Complete Main
Default : Yes
Forced : No

Примечание: без интро Flarrow Films
Источник http://BlaTor.org

Трекер:  [ 16-Окт-2019 19:30 ]

  

Скачать .torrent

Размер .torrent файла 15 KB


Размер: 2.98 GB
Хэш (hash) релиза: fc90d1d6e6c9d7ff8af4ad28f5d3f8e6645914
Подписка на обновления:

Еще никто не оставлял запись к записи скачать торрент Чудо-Женщина: Родословная Wonder Woman: Bloodlines . Будь первым!

!Обратная связь