Скачать через торрент Одесса Фильм бесплатно в хорошем качестве torrent

Скачивайте на UnionPeer.org фильмы через торрент без регистрации. Новинки кино в хорошем качестве через торрент. На UnionPeer.org можно скачать через торрент фильмы 2014 и 2015 годов. Самые новые фильмы.

Скачать торрент Одесса бесплатно через .torrent фильм мультфильм сериал

Статистика раздачи
Размер:  1.45 GB   |    Зарегистрирован:  1 месяц   |    .torrent скачан:  108 раз   |   
Раздают:  2  
 

Скачать Одесса (2018) WEB-DLRip | iTunes через torrent

 
загрузка...
 
Автор Сообщение

Galfimbul

avatar Galfimbul


Одесса



[b]Год выхода:
2018
Жанр: Драма
Страна: Россия
Перевод: Не требуется
Продолжительность: 02:09:46
Режиссер: Валерий Тодоровский
В ролях: Ирина Розанова, Евгений Цыганов, Леонид Ярмольник, Ксения Раппопорт, Евгения Брик, Степан Середа, Станислав Эвентов, Вероника Устимова, Сергей Сосновский, Сергей Муравьёв и др.

О фильме: Одесса, август 1970 года. Самая жара. Город забит курортниками. В гости к тестю с тёщей, Григорию Иосифовичу и Раисе Ировне Давыдовым, прилетают из Москвы их зять Борис, журналист-международник, и его восьмилетний сын Валерик. Но именно в день их прилета в Одессе объявляют холерный карантин, город закрывают. Так приехавший на пару дней московский зять погружается в мир, измененный серьезной опасностью. Вскроются семейные тайны, произойдут невероятные события и случится большая запретная любовь.



Файл
Формат: AVI
Качество: WEB-DLRip
Видео: Xvid 73, 720x304, ~1400 kbps, 24,000 fps
Звук: русский, AC3, 2.0 ch, 48 kHz, 192 kbps
Субтитры: нет
Общее
Полное имя : G:Torrent2OdessaWEBDLRip.avi
Формат : AVI
Формат/Информация : Audio Video Interleave
Профиль формата : OpenDML
Размер файла : 1,45 Гбайт
Продолжительность : 2 ч. 9 м.
Общий поток : 1604 Кбит/сек
Программа кодирования : XviD4PSP 6.0 / 53.6.0

Видео
Идентификатор : 0
Формат : MPEG-4 Visual
Профиль формата : Advanced Simple@L5
Настройки формата : BVOP1 / Custom Matrix
Параметр BVOP формата : 1
Параметр QPel формата : Нет
Параметр GMC формата : Без точки перехода
Параметр матрицы формата : Выборочная
Идентификатор кодека : XVID
Идентификатор кодека/Подсказка : XviD
Продолжительность : 2 ч. 9 м.
Битрейт : 1400 Кбит/сек
Ширина : 720 пикселей
Высота : 304 пикселя
Соотношение сторон : 2,35:1
Частота кадров : 24,000 кадра/сек
Цветовое пространство : YUV
Субдискретизация насыщенности : 4:2:0
Битовая глубина : 8 бит
Тип развёртки : Прогрессивная
Метод сжатия : С потерями
Бит/(Пиксели*Кадры) : 0.266
Размер потока : 1,27 Гбайт (87%)
Библиотека кодирования : XviD 73

Аудио
Идентификатор : 1
Формат : AC-3
Формат/Информация : Audio Coding 3
Параметр Endianness формата : Big
Идентификатор кодека : 2000
Продолжительность : 2 ч. 9 м.
Вид битрейта : Постоянный
Битрейт : 192 Кбит/сек
Каналы : 2 канала
Расположение каналов : Front: L R
Частота : 48,0 КГц
Частота кадров : 31,250 кадров/сек (1536 SPF)
Битовая глубина : 16 бит
Метод сжатия : С потерями
Размер потока : 178 Мбайт (12%)
Выравнивание : Соединение по промежуткам
Продолжительность промежутка : 32 мс. (0,77 видеокадр)
Рип и релиз от:
Источник http://BlaTor.org

Трекер:  [ 16-Окт-2019 23:10 ]

  

Скачать .torrent

Размер .torrent файла 15 KB


Размер: 1.45 GB
Хэш (hash) релиза: 946e04dbff1e6298307aaf5aa19cdc57ac1048ec
Подписка на обновления:

Торренты, похожие на Одесса скачать торрент

Форум Название Автор Размер S L Добавлен
Российские фильмы 2016-2018 (Новинки русского кино) ·%· Одесса (2018) WEB-DLRip-AVC от Files-x | iTunes Galfimbul 15652392641.46 GB 0 0 1571580631

17:10

20-Окт-19

Российские фильмы 2016-2018 (Новинки русского кино) ·%· Одесса / Odessa (2019) WEB-DLRip от Scarabey | iTunes Galfimbul 15543132161.45 GB 0 0 1571503839

19:50

19-Окт-19

Российские фильмы 2016-2018 (Новинки русского кино) ·%· Одесса (2018) WEB-DLRip-AVC | iTunes Galfimbul 17560090751.64 GB 0 0 1571493013

16:50

19-Окт-19

Российские фильмы 2016-2018 (Новинки русского кино) ·%· Одесса (2018) WEB-DLRip-AVC от ExKinoRay | iTunes Galfimbul 781995916746 MB 0 0 1571325609

18:20

17-Окт-19

Российские фильмы 2016-2018 (Новинки русского кино) ·%· Одесса (2018) WEB-DLRip | iTunes Galfimbul 782477312746 MB 0 0 1571313625

15:00

17-Окт-19

Российские фильмы 2016-2018 (Новинки русского кино) ·%· Одесса (2018) WEB-DLRip от Generalfilm | КПК | iTunes Galfimbul 517310672493 MB 0 0 1571299219

11:00

17-Окт-19

Российские фильмы 2016-2018 (Новинки русского кино) ·%· Одесса (2018) WEB-DL 1080p | iTunes Galfimbul 48326193684.5 GB 0 0 1571256624

23:10

16-Окт-19

Российские сериалы ·%· Одессит / Сезон: 1 / Серии: 1-4 из 4 (Игорь Копылов) [2013, криминальный фильм, мелодрама, HDTVRip] Galfimbul 21866598402.04 GB 0 0 1530459772

18:42

1-Июл-18

Российские сериалы ·· Сувенир из Одессы / Серии: 1 из 12 (Олег Туранский) [2018, детектив, мелодрама, WEBRip] Galfimbul 629075968600 MB 0 0 1521535374

11:42

20-Мар-18

Российские сериалы ·· Сувенир из Одессы / Серии: 1-12 из 12 (Олег Туранский) [2018, детектив, мелодрама, WEBRip 1080p] Galfimbul 1634577646515.22 GB 0 0 1521533561

11:12

20-Мар-18

Российские сериалы ·· Сувенир из Одессы / Серии: 1-12 из 12 (Олег Туранский) [2018, детектив, мелодрама, WEBRip-AVC] Galfimbul 69941246626.51 GB 0 0 1521533552

11:12

20-Мар-18

Российские фильмы до 2016 ·· Три дня в Одессе (Алексей Пиманов) [2007, криминал, детектив, история, DVDRip-AVC] Galfimbul 18443548011.72 GB 0 0 1521404663

23:24

18-Мар-18

Развлекательные телепередачи и шоу ·· ПостКВН. Лига смеха 2018.(01). Фестиваль в Одессе, часть 1 / Ліга сміху [02.03.2018, Юмористическое шоу, WEB-DL 1080p] Galfimbul 32982221693.07 GB 0 0 1520108165

23:16

3-Мар-18

Фильмы Ближнего Зарубежья ·· Луна - Одесса (Анатолий Матешко) [2007, Украина, Комедия, детектив, DVD5] Sub ukr Galfimbul 46888632324.37 GB 0 0 1519986584

13:29

2-Мар-18

Документальные фильмы и телепередачи ·· Из Одессы с Любовью (фильм-открытка) / From Odessa with Love (Евгений Вагнер) [2001, документальный, DVDRip] Galfimbul 736884762703 MB 0 0 1512924199

19:43

10-Дек-17

Спорт ·· Кубок Украины 2017-2018 / 1/8 финала / Первый матч / БИПА (Одесса) - МБК Николаев (Николаев) [Ukrainian Basketball Cup / 1/8 / 1st game / BIPA (Odessa) - MBC Mykolaiv (Mykolaiv)] / ФБУ ТВ [17/11/2017, баскетбол, WEB-DL HD/1080p/25fps, MKV/H.264, UA] Galfimbul 88463537528.24 GB 0 0 1510958967

01:49

18-Ноя-17

Спорт ·· Суперлига Украины 2017-2018 / Регулярный чемпионат / БИПА (Одесса) - Днепр (Днепр) [Ukrainian Basketball SuperLeague / RS / BIPA (Odessa) - Dnipro (Dnipro)] / Xsport [09/11/2017, баскетбол, DVBRip/576p/25fps, MKV/H.264, UA] Galfimbul 17875278861.66 GB 0 0 1510255236

22:20

9-Ноя-17

Спорт ·· Суперлига Украины 2017-2018 / Регулярный чемпионат / БИПА (Одесса) - Будивельник (Киев) [Ukrainian Basketball SuperLeague / RS / BIPA (Odessa) - Budivelnyk (Kyiv)] / ФБУ ТВ [03/11/2017, баскетбол, WEB-DLRip/720p/25fps, MKV/H.264, UA] Galfimbul 16447359471.53 GB 0 0 1509783595

11:19

4-Ноя-17

Спорт ·· Чемпионат Украины 2017-2018 / 14 тур / Черноморец (Одесса) - Мариуполь (Мариуполь) / Униан [30.10.2017, Футбол, MP4, WEBRip/720p, UA] Galfimbul 16281962661.52 GB 0 0 1509475711

21:48

31-Окт-17

Еще никто не оставлял запись к записи скачать торрент Одесса . Будь первым!

!Обратная связь