Скачать через торрент Маленькие чудовища Little Monsters Фильм бесплатно в хорошем качестве torrent

Скачивайте на UnionPeer.org фильмы через торрент без регистрации. Новинки кино в хорошем качестве через торрент. На UnionPeer.org можно скачать через торрент фильмы 2014 и 2015 годов. Самые новые фильмы.

Скачать торрент Маленькие чудовища Little Monsters бесплатно через .torrent фильм мультфильм сериал

Статистика раздачи
Размер:  1.29 GB   |    Зарегистрирован:  30 дней   |    .torrent скачан:  199 раз   |   
Раздают:  3  
 

Скачать Маленькие чудовища / Little Monsters (2019) WEBRip 1080p | HDRezka Studio через torrent

 
загрузка...
 
Автор Сообщение

Galfimbul

avatar Galfimbul


Маленькие чудовища /Little Monsters

Год выхода: 2019
Жанр: Ужасы, комедия
Режиссер: Абе Форсайт
В ролях: Лупита Нионго, Джош Гэд, Стивен Пикок, Кэт Стюарт, Александр Инглэнд, Надя Таунсенд, Феликс Уильямсон, Маршалл Напье, Генри Никсон, Джейсон Чонг, Дизель Ла Торрак



О фильме: Учительница начальных классов везёт группу детей за город на экскурсию, когда на местности происходит вспышка зомби-вируса. Чтобы спастись и не травмировать детскую психику, женщина убеждает малышей в том, что все эти зомби, кровь, кишки - ненастоящие, а всё происходящее - просто игра. Странная, но весёлая. И вот тот дядя корчится не от боли, а от радости. И не корчится, а смеётся.

Страна: Австралия, Великобритания, США
Студия: Made Up Stories, Protagonist Pictures, Snoot Entertainment
Продолжительность: 01:34:12
Перевод: Профессиональный многоголосый (HDRezka Studio)

Качество: WEBRip 1080p
Видео: MPEG-4 AVC, 1796 Кбит/с, 1920x1080, 23.976 Кадр/с
Звук: Русский (AAC, 2 ch, 169 Kbit/s)
Субтитры: Русские (форсированные, хардсаб)
Семпл

Скриншоты:


Без рекламы.
Video
ID : 1
Format : AVC
Format/Info : Advanced Video Codec
Format profile : High@L4.1
Format settings : CABAC / 4 Ref Frames
Format settings, CABAC : Yes
Format settings, Reference : 4 frames
Codec ID : V_MPEG4/ISO/AVC
Duration : 1 h 34 min
Bit rate : 1 796 kb/s
Width : 1 920 pixels
Height : 1 088 pixels
Original height : 1 080 pixels
Display aspect ratio : 16:9
Original display aspect rat : 16:9
Frame rate mode : Constant
Frame rate : 23.976 FPS
Color space : YUV
Chroma subsampling : 4:2:0
Bit depth : 8 bits
Scan type : Progressive
Bits/(Pixel*Frame) : 0.036
Stream size : 1.18 GiB (91%)
Language : English
Default : Yes
Forced : No

Audio
ID : 2
Format : AAC LC
Format/Info : Advanced Audio Codec Low Complexity
Codec ID : A_AAC-2
Duration : 1 h 34 min
Bit rate : 169 kb/s
Channel(s) : 2 channels
Channel layout : L R
Sampling rate : 48.0 kHz
Frame rate : 46.875 FPS (1024 SPF)
Compression mode : Lossy
Delay relative to video : 16 ms
Stream size : 114 MiB (9%)
Language : Russian
Default : Yes
Forced : No
Источник http://BlaTor.org

Трекер:  [ 18-Окт-2019 08:00 ]

  

Скачать .torrent

Размер .torrent файла 13 KB


Размер: 1.29 GB
Хэш (hash) релиза: e1b7681c5f898cc0a40caf0579036856ac1b2a5d
Подписка на обновления:

Еще никто не оставлял запись к записи скачать торрент Маленькие чудовища Little Monsters . Будь первым!

!Обратная связь