Скачать через торрент Страшные истории для рассказа в темноте Scary Stories to Tell in the Dark Фильм бесплатно в хорошем качестве torrent

Скачивайте на UnionPeer.org фильмы через торрент без регистрации. Новинки кино в хорошем качестве через торрент. На UnionPeer.org можно скачать через торрент фильмы 2014 и 2015 годов. Самые новые фильмы.

Скачать торрент Страшные истории для рассказа в темноте Scary Stories to Tell in the Dark бесплатно через .torrent фильм мультфильм сериал

Статистика раздачи
Размер:  6.19 GB   |    Зарегистрирован:  4 года 4 месяца   |    .torrent скачан:  89 раз   |   
Раздают:  1  
 

Скачать Страшные истории для рассказа в темноте / Scary Stories to Tell in the Dark (2019) WEB-DL 1080p | iTunes через torrent

 
 
Автор Сообщение

Galfimbul

avatar Galfimbul


Страшные истории для рассказа в темноте /Scary Stories to Tell in the Dark

Год выхода: 2019
Жанр: Ужасы, триллер, экранизация
Режиссер: Андре Овредал
В ролях: Зои Маргарет Коллетти, Майкл Гарза, Гэбриел Раш, Остин Абрамс, Дин Норрис, Джил Беллоуз, Лоррейн Туссен, Остин Зажур, Натали Гэнзхорн, Кэтлин Поллард

О фильме:
1968 год. Над Америкой витает ветер перемен... Но не над маленьким городком Милл-Вэлли, где проживало несколько поколений таинственной семьи Беллоу. В их зловещем особняке на краю города мучительная жизнь девочки Сары, хранящей ужасные тайны, превратилась в книжку страшных историй. Спустя время эти жуткие рассказы воплотились в реальность для нескольких подростков, нашедших книгу. «Страшные истории для рассказа в темноте» — экранизация популярной трилогии ужасов Элвина Шварца.



Страна: США, Канада, Китай
Студия: 1212 Entertainment, CBS Films
Продолжительность: 01:47:56
Перевод: Дублированный | iTunes

Файл
Кодек: x.264
Качество: WEB-DL 1080p | Scary.Stories.to.Tell.in.the.Dark.2019.1080p.AMZN.WEB-DL.DDP5.1.x264-NTG
Видео: MPEG-4 AVC, 7181 Kбит/с, 1920x1080, 23.976 кадр/с
Звук:
Аудио #1: Русский (АС3, 6 ch, 384 Кбит/с, 48.0 KHz) Профессиональный (дублированный) iTunes
Аудио #2: Английский (E-АС3, 6 ch, 640 Кбит/с, 48.0 KHz)
Субтитры: английские
Трейлер
Источник: Scary.Stories.to.Tell.in.the.Dark.2019.1080p.AMZN.WEB-DL.DDP5.1.x264-NTG
General
Unique ID : 254821007155829798210635319847169328169 (0xBFB4BDA5FD0ABDAEBC1136F0CD108429)
Complete name : Scary.Stories.to.Tell.in.the.Dark.2019.AMZN.WEB-DL.1080p.mkv
Format : Matroska
Format version : Version 4
File size : 6.19 GiB
Duration : 1 h 47 min
Overall bit rate : 8 207 kb/s
Encoded date : UTC 2019-10-22 11:42:17
Writing application : mkvmerge v7.1.0 ('Good Love') 64bit built on Jul 27 2014 13:06:55
Writing library : libebml v1.3.0 + libmatroska v1.4.1

Video
ID : 1
Format : AVC
Format/Info : Advanced Video Codec
Format profile : High@L4
Format settings : CABAC / 4 Ref Frames
Format settings, CABAC : Yes
Format settings, Reference fra : 4 frames
Codec ID : V_MPEG4/ISO/AVC
Duration : 1 h 47 min
Bit rate mode : Constant
Bit rate : 7 181 kb/s
Nominal bit rate : 10 000 kb/s
Width : 1 920 pixels
Height : 1 080 pixels
Display aspect ratio : 16:9
Frame rate mode : Constant
Frame rate : 23.976 (24000/1001) FPS
Color space : YUV
Chroma subsampling : 4:2:0
Bit depth : 8 bits
Scan type : Progressive
Bits/(Pixel*Frame) : 0.144
Stream size : 5.41 GiB (87%)
Language : English
Default : Yes
Forced : No
Color range : Limited
Color primaries : BT.709
Transfer characteristics : BT.709
Matrix coefficients : BT.709

Audio #1
ID : 2
Format : AC-3
Format/Info : Audio Coding 3
Commercial name : Dolby Digital
Codec ID : A_AC3
Duration : 1 h 47 min
Bit rate mode : Constant
Bit rate : 384 kb/s
Channel(s) : 6 channels
Channel layout : L R C LFE Ls Rs
Sampling rate : 48.0 kHz
Frame rate : 31.250 FPS (1536 SPF)
Bit depth : 16 bits
Compression mode : Lossy
Stream size : 296 MiB (5%)
Title : DUB | iTunes
Language : Russian
Service kind : Complete Main
Default : Yes
Forced : No

Audio #2
ID : 3
Format : E-AC-3
Format/Info : Enhanced AC-3
Commercial name : Dolby Digital Plus
Codec ID : A_EAC3
Duration : 1 h 47 min
Bit rate mode : Constant
Bit rate : 640 kb/s
Channel(s) : 6 channels
Channel layout : L R C LFE Ls Rs
Sampling rate : 48.0 kHz
Frame rate : 31.250 FPS (1536 SPF)
Compression mode : Lossy
Stream size : 494 MiB (8%)
Language : English
Service kind : Complete Main
Default : No
Forced : No

Text #1
ID : 4
Format : UTF-8
Codec ID : S_TEXT/UTF8
Codec ID/Info : UTF-8 Plain Text
Duration : 1 h 39 min
Bit rate : 46 b/s
Count of elements : 1243
Stream size : 33.7 KiB (0%)
Language : English
Default : No
Forced : No

Text #2
ID : 5
Format : UTF-8
Codec ID : S_TEXT/UTF8
Codec ID/Info : UTF-8 Plain Text
Duration : 1 h 40 min
Bit rate : 53 b/s
Count of elements : 1523
Stream size : 39.3 KiB (0%)
Title : SDH
Language : English
Default : No
Forced : No
Источник http://BlaTor.org

Внимание! AdBlock блокирует показ скриншотов, все вопросы к разработчикам )))
Трекер:  [ 22-Окт-2019 15:40 ]

  

Скачать .torrent

Размер .torrent файла 16 KB


Размер: 6.19 GB
Хэш (hash) релиза: cfa36eec1e94850b3c2a0cce5b1ef31c8bd3f32f
Подписка на обновления:

Торренты, похожие на Страшные истории для рассказа в темноте Scary Stories to Tell in the Dark скачать торрент

Форум Название Автор Размер S L Добавлен
Зарубежные фильмы 2016-2019 (Новинки зарубежного кино) ·%· Страшные истории для рассказа в темноте / Scary Stories to Tell in the Dark (2019) BDRip-HEVC 1080p от HEVC-CLUB | iTunes Galfimbul 51881998314.83 GB 0 0 1572941411

11:10

5-Ноя-19

Зарубежные фильмы 2016-2019 (Новинки зарубежного кино) ·%· Страшные истории для рассказа в темноте / Scary Stories to Tell in the Dark (2019) BDRip-AVC от OlLanDGroup | iTunes Galfimbul 781813774746 MB 0 0 1572328831

09:00

29-Окт-19

Зарубежные фильмы 2016-2019 (Новинки зарубежного кино) ·%· Страшные истории для рассказа в темноте / Scary Stories to Tell in the Dark (2019) BDRip | iTunes Galfimbul 23295544942.17 GB 0 0 1572285020

20:50

28-Окт-19

Зарубежные фильмы 2016-2019 (Новинки зарубежного кино) ·%· Страшные истории для рассказа в темноте / Scary Stories to Tell in the Dark (2019) BDRip-AVC от ExKinoRay | iTunes Galfimbul 18823884721.75 GB 0 0 1572219008

02:30

28-Окт-19

Зарубежные фильмы 2016-2019 (Новинки зарубежного кино) ·%· Страшные истории для рассказа в темноте / Scary Stories to Tell in the Dark (2019) BDRip | iTunes Galfimbul 784154624748 MB 0 0 1572213011

00:50

28-Окт-19

Зарубежные фильмы 2016-2019 (Новинки зарубежного кино) ·%· Страшные истории для рассказа в темноте / Scary Stories to Tell in the Dark (2019) BDRip 720p от селезень | iTunes Galfimbul 41455299073.86 GB 0 0 1572189023

18:10

27-Окт-19

Зарубежные фильмы 2016-2019 (Новинки зарубежного кино) ·%· Страшные истории для рассказа в темноте / Scary Stories to Tell in the Dark (2019) BDRip 1080p от селезень | iTunes Galfimbul 78694019187.33 GB 0 0 1572179412

15:30

27-Окт-19

Зарубежные фильмы 2016-2019 (Новинки зарубежного кино) ·%· Страшные истории для рассказа в темноте / Scary Stories to Tell in the Dark (2019) BDRemux 1080p от селезень | iTunes Galfimbul 3072184102928.61 GB 0 0 1572160207

10:10

27-Окт-19

Зарубежные фильмы 2016-2019 (Новинки зарубежного кино) ·%· Страшные истории для рассказа в темноте / Scary Stories to Tell in the Dark (2019) UHD BDRemux 2160p от селезень | 4K | HDR | iTunes Galfimbul 5425620933050.53 GB 0 0 1572094253

15:50

26-Окт-19

Зарубежные фильмы 2016-2019 (Новинки зарубежного кино) ·%· Страшные истории для рассказа в темноте / Scary Stories to Tell in the Dark (2019) WEBRip 720p | iTunes Galfimbul 35529508623.31 GB 0 0 1571754010

17:20

22-Окт-19

Зарубежные фильмы 2016-2019 (Новинки зарубежного кино) ·%· Страшные истории для рассказа в темноте / Scary Stories to Tell in the Dark (2019) WEB-DLRip | КПК | iTunes Galfimbul 495202121472 MB 0 0 1570882810

15:20

12-Окт-19

Зарубежные фильмы 2016-2019 (Новинки зарубежного кино) ·%· Страшные истории для рассказа в темноте / Scary Stories to Tell in the Dark (2019) WEB-DLRip от Scarabey | iTunes Galfimbul 16192061441.51 GB 0 0 1570812015

19:40

11-Окт-19

Зарубежные фильмы 2016-2019 (Новинки зарубежного кино) ·%· Страшные истории для рассказа в темноте / Scary Stories to Tell in the Dark (2019) WEB-DLRip-AVC | iTunes Galfimbul 781186380745 MB 0 0 1570719607

18:00

10-Окт-19

Зарубежные фильмы 2016-2019 (Новинки зарубежного кино) ·%· Страшные истории для рассказа в темноте / Scary Stories to Tell in the Dark (2019) WEB-DLRip-AVC от OlLanDGroup | iTunes Galfimbul 17448663101.63 GB 0 0 1570712410

16:00

10-Окт-19

Зарубежные фильмы 2016-2019 (Новинки зарубежного кино) ·%· Страшные истории для рассказа в темноте / Scary Stories to Tell in the Dark (2019) WEB-DLRip от MegaPeer | iTunes Galfimbul 15682027521.46 GB 0 0 1570652445

23:20

9-Окт-19

Зарубежные фильмы 2016-2019 (Новинки зарубежного кино) ·%· Страшные истории для рассказа в темноте / Scary Stories to Tell in the Dark (2019) WEB-DL 1080p от селезень | iTunes Galfimbul 38313604953.57 GB 0 0 1570647607

22:00

9-Окт-19

Еще никто не оставлял запись к записи скачать торрент Страшные истории для рассказа в темноте Scary Stories to Tell in the Dark . Будь первым!

!Обратная связь