Скачать через торрент Али, рули! Stuber Фильм бесплатно в хорошем качестве torrent

Скачивайте на UnionPeer.org фильмы через торрент без регистрации. Новинки кино в хорошем качестве через торрент. На UnionPeer.org можно скачать через торрент фильмы 2014 и 2015 годов. Самые новые фильмы.

Скачать торрент Али, рули! Stuber бесплатно через .torrent фильм мультфильм сериал

Статистика раздачи
Размер:  3.37 GB   |    Зарегистрирован:  8 месяцев   |    .torrent скачан:  47 раз   |   
Раздают:  1  
 

Скачать Али, рули! / Stuber (2019) BDRip-HEVC 1080p | iTunes через torrent

 
Timeweb Many GEOs Sprinthost
загрузка...
 
Автор Сообщение

Galfimbul ghost

avatar Galfimbul ghost


Год выхода: 2019
Страна / Студия: США / Twentieth Century Fox
Жанр: Боевик, триллер, комедия, криминал
Продолжительность: 01:33:24
Перевод: Дублированный (iTunes)

Режиссер: Майкл Даус
В ролях: Кумэйл Нанджиани, Дэйв Батиста, Мира Сорвино, Натали Моралес, Ико Уайс, Бетти Гилпин, Карен Гиллан, Джимми Татро, Стив Хоуи, Рене Моран

Описание: Скромный водитель Uber по имени Стю подбирает пассажира, который оказывается полицейским, идущим по следу жестокого убийцы. Таксист даже представить не мог, что теперь его ждет мучительное испытание, в ходе которого он будет отчаянно пытаться сохранить здравомыслие, жизнь и пятизвездочный рейтинг в приложении.

Качество: BDRip 1080p
Видео: HEVC/H.265, 1920x804, ~4332 Kbps
Аудио 1: AC3, 6 ch, 384 Kbps - Русский, дублированный
Аудио 2: AC3, 6 ch, 448 Kbps - Английский
Субтитры: Русские (форсированные, полные), английские
Общее
Уникальный идентификатор : 271061557187832414220689787471004234777 (0xCBEC8E95FB20C210AFC81136B468F419)
Полное имя : R:Stuber (2019)1080p. x265 10bit (1).mkv
Формат : Matroska
Версия формата : Version 4 / Version 2
Размер файла : 3,37 Гбайт
Продолжительность : 1 ч. 33 м.
Общий поток : 5167 Кбит/сек
Дата кодирования : UTC 2019-10-19 06:22:47
Программа кодирования : mkvmerge v28.2.0 ('The Awakening') 64-bit
Библиотека кодирования : libebml v1.3.6 + libmatroska v1.4.9
Обложка : Yes
Attachments : cover.jpg

Видео
Идентификатор : 1
Формат : HEVC
Формат/Информация : High Efficiency Video Coding
Профиль формата : Main 10@L4@Main
Идентификатор кодека : V_MPEGH/ISO/HEVC
Продолжительность : 1 ч. 33 м.
Битрейт : 4332 Кбит/сек
Ширина : 1920 пикселей
Высота : 804 пикселя
Соотношение сторон : 2,40:1
Режим частоты кадров : Постоянный
Частота кадров : 23,976 (24000/1001) кадра/сек
Цветовое пространство : YUV
Субдискретизация насыщенности : 4:2:0
Битовая глубина : 10 бит
Бит/(Пиксели*Кадры) : 0.117
Размер потока : 2,83 Гбайт (84%)
Библиотека кодирования : x265 3.2+5-354901970679:[Windows][GCC 9.2.0][64 bit] 10bit
Настройки программы : cpuid=1111039 / frame-threads=3 / numa-pools=8 / wpp / no-pmode / no-pme / no-psnr / no-ssim / log-level=2 / input-csp=1 / input-res=1920x804 / interlace=0 / total-frames=134352 / level-idc=0 / high-tier=1 / uhd-bd=0 / ref=4 / no-allow-non-conformance / no-repeat-headers / annexb / no-aud / no-hrd / info / hash=0 / no-temporal-layers / open-gop / min-keyint=23 / keyint=250 / gop-lookahead=0 / bframes=8 / b-adapt=2 / b-pyramid / bframe-bias=0 / rc-lookahead=25 / lookahead-slices=4 / scenecut=40 / radl=0 / no-splice / no-intra-refresh / ctu=64 / min-cu-size=8 / rect / no-amp / max-tu-size=32 / tu-inter-depth=1 / tu-intra-depth=1 / limit-tu=0 / rdoq-level=2 / dynamic-rd=0.00 / no-ssim-rd / signhide / no-tskip / nr-intra=0 / nr-inter=0 / no-constrained-intra / strong-intra-smoothing / max-merge=3 / limit-refs=3 / limit-modes / me=3 / subme=3 / merange=57 / temporal-mvp / no-frame-dup / no-hme / weightp / no-weightb / no-analyze-src-pics / deblock=0:0 / no-sao / no-sao-non-deblock / rd=4 / selective-sao=0 / no-early-skip / rskip / no-fast-intra / no-tskip-fast / no-cu-lossless / no-b-intra / no-splitrd-skip / rdpenalty=0 / psy-rd=2.00 / psy-rdoq=1.00 / no-rd-refine / no-lossless / cbqpoffs=0 / crqpoffs=0 / rc=crf / crf=18.0 / qcomp=0.60 / qpstep=4 / stats-write=0 / stats-read=0 / ipratio=1.40 / pbratio=1.30 / aq-mode=3 / aq-strength=1.00 / cutree / zone-count=0 / no-strict-cbr / qg-size=32 / no-rc-grain / qpmax=69 / qpmin=0 / no-const-vbv / sar=0 / overscan=0 / videoformat=5 / range=0 / colorprim=2 / transfer=2 / colormatrix=2 / chromaloc=0 / display-window=0 / cll=0,0 / min-luma=0 / max-luma=1023 / log2-max-poc-lsb=8 / vui-timing-info / vui-hrd-info / slices=1 / no-opt-qp-pps / no-opt-ref-list-length-pps / no-multi-pass-opt-rps / scenecut-bias=0.05 / no-opt-cu-delta-qp / aq-motion / no-hdr / no-hdr-opt / no-dhdr10-opt / no-idr-recovery-sei / analysis-reuse-level=5 / scale-factor=0 / refine-intra=0 / refine-inter=0 / refine-mv=1 / refine-ctu-distortion=0 / no-limit-sao / ctu-info=0 / no-lowpass-dct / refine-analysis-type=0 / copy-pic=1 / max-ausize-factor=1.0 / no-dynamic-refine / no-single-sei / no-hevc-aq / no-svt / no-field / qp-adaptation-range=1.00
Default : Да
Forced : Нет

Аудио #1
Идентификатор : 2
Формат : AC-3
Формат/Информация : Audio Coding 3
Идентификатор кодека : A_AC3
Продолжительность : 1 ч. 33 м.
Вид битрейта : Постоянный
Битрейт : 384 Кбит/сек
Каналы : 6 каналов
Расположение каналов : Front: L C R, Side: L R, LFE
Частота : 48,0 КГц
Частота кадров : 31,250 кадров/сек (1536 SPF)
Битовая глубина : 16 бит
Метод сжатия : С потерями
Размер потока : 256 Мбайт (7%)
Заголовок : DUB [iTunes]
Язык : Russian
ServiceKind/ : Complete Main
Default : Да
Forced : Нет

Аудио #2
Идентификатор : 3
Формат : AC-3
Формат/Информация : Audio Coding 3
Идентификатор кодека : A_AC3
Продолжительность : 1 ч. 33 м.
Вид битрейта : Постоянный
Битрейт : 448 Кбит/сек
Каналы : 6 каналов
Расположение каналов : Front: L C R, Side: L R, LFE
Частота : 48,0 КГц
Частота кадров : 31,250 кадров/сек (1536 SPF)
Битовая глубина : 16 бит
Метод сжатия : С потерями
Размер потока : 299 Мбайт (9%)
Заголовок : [Original]
Язык : English
ServiceKind/ : Complete Main
Default : Нет
Forced : Нет

Текст #1
Идентификатор : 4
Формат : UTF-8
Идентификатор кодека : S_TEXT/UTF8
Идентификатор кодека/Информация : UTF-8 Plain Text
Продолжительность : 1 ч. 27 м.
Битрейт : 1 бит/сек
ElementCount : 24
Размер потока : 876 байт (0%)
Заголовок : Forced
Язык : Russian
Default : Да
Forced : Нет

Текст #2
Идентификатор : 5
Формат : UTF-8
Идентификатор кодека : S_TEXT/UTF8
Идентификатор кодека/Информация : UTF-8 Plain Text
Продолжительность : 1 ч. 32 м.
Битрейт : 114 бит/сек
ElementCount : 1819
Размер потока : 77,4 Кбайт (0%)
Заголовок : Full
Язык : Russian
Default : Нет
Forced : Нет

Текст #3
Идентификатор : 6
Формат : UTF-8
Идентификатор кодека : S_TEXT/UTF8
Идентификатор кодека/Информация : UTF-8 Plain Text
Продолжительность : 1 ч. 26 м.
Битрейт : 83 бит/сек
ElementCount : 1795
Размер потока : 52,9 Кбайт (0%)
Заголовок : Full
Язык : English
Default : Нет
Forced : Нет

Меню
00:00:00.000 : en:Chapter 01
00:05:52.518 : en:Chapter 02
00:09:57.221 : en:Chapter 03
00:14:14.728 : en:Chapter 04
00:17:30.424 : en:Chapter 05
00:19:46.310 : en:Chapter 06
00:22:39.941 : en:Chapter 07
00:27:33.234 : en:Chapter 08
00:31:30.597 : en:Chapter 09
00:33:18.871 : en:Chapter 10
00:35:39.887 : en:Chapter 11
00:40:13.035 : en:Chapter 12
00:45:05.202 : en:Chapter 13
00:49:10.113 : en:Chapter 14
00:52:36.903 : en:Chapter 15
00:56:46.027 : en:Chapter 16
01:01:54.627 : en:Chapter 17
01:05:43.856 : en:Chapter 18
01:08:36.946 : en:Chapter 19
01:13:31.031 : en:Chapter 20
01:16:44.308 : en:Chapter 21
01:19:07.534 : en:Chapter 22
01:23:54.654 : en:Chapter 23
01:27:49.597 : en:Chapter 24

Источник http://BlaTor.org

Внимание! AdBlock блокирует показ скриншотов, все вопросы к разработчикам )))
Трекер:  [ 23-Окт-2019 22:40 ]

  

Скачать .torrent

Размер .torrent файла 17 KB


Размер: 3.37 GB
Хэш (hash) релиза: 428a71341ede585a442eedab580f8d8036955c9d
Подписка на обновления:

Торренты, похожие на Али, рули! Stuber скачать торрент

Форум Название Автор Размер S L Добавлен
Зарубежные фильмы 2016-2019 (Новинки зарубежного кино) ·%· Али, рули! / Stuber (2019) BDRip 1080p от Талямбы | 60 fps | iTunes Galfimbul ghost 99042800799.22 GB 0 0 1574107219

23:00

18-Ноя-19

Зарубежные фильмы 2016-2019 (Новинки зарубежного кино) ·%· Али, рули! / Stuber (2019) BDRip-AVC от HELLYWOOD | iTunes Galfimbul ghost 23002166952.14 GB 0 0 1572403222

05:40

30-Окт-19

Зарубежные фильмы 2016-2019 (Новинки зарубежного кино) ·%· Али, рули! / Stuber (2019) BDRip от Twister & ExKinoRay | iTunes Galfimbul ghost 15227982461.42 GB 0 0 1570861209

09:20

12-Окт-19

Зарубежные фильмы 2016-2019 (Новинки зарубежного кино) ·%· Али, рули! / Stuber (2019) HDRip от Scarabey | iTunes Galfimbul ghost 15056629761.4 GB 0 0 1570813220

20:00

11-Окт-19

Зарубежные фильмы 2016-2019 (Новинки зарубежного кино) ·%· Али, рули! / Stuber (2019) HDRip-AVC от ExKinoRay | iTunes Galfimbul ghost 781919405746 MB 0 0 1570684811

08:20

10-Окт-19

Зарубежные фильмы 2016-2019 (Новинки зарубежного кино) ·%· Али, рули! / Stuber (2019) BDRip-AVC от OlLanDGroup | iTunes Galfimbul ghost 18622184361.73 GB 0 0 1570669218

04:00

10-Окт-19

Зарубежные фильмы 2016-2019 (Новинки зарубежного кино) ·%· Али, рули! / Stuber (2019) BDRip 720p от селезень | iTunes Galfimbul ghost 42431192373.95 GB 0 0 1570656018

00:20

10-Окт-19

Зарубежные фильмы 2016-2019 (Новинки зарубежного кино) ·%· Али, рули! / Stuber (2019) BDRip от MegaPeer | iTunes Galfimbul ghost 15235249851.42 GB 0 0 1570641612

20:20

9-Окт-19

Зарубежные фильмы 2016-2019 (Новинки зарубежного кино) ·%· Али, рули! / Stuber (2019) BDRemux 1080p от селезень | iTunes Galfimbul ghost 2473314585023.03 GB 0 0 1570633214

18:00

9-Окт-19

Зарубежные фильмы 2016-2019 (Новинки зарубежного кино) ·%· Али, рули! / Stuber (2019) UHD BDRip-HEVC 2160p | 4K | SDR | iTunes Galfimbul ghost 2437732672122.7 GB 0 0 1570489212

02:00

8-Окт-19

Зарубежные фильмы 2016-2019 (Новинки зарубежного кино) ·%· Али, рули! / Stuber (2019) UHD BDRip-HEVC 2160p | 4K | HDR | iTunes Galfimbul ghost 1231420410811.47 GB 2 0 1570471211

21:00

7-Окт-19

Зарубежные фильмы 2016-2019 (Новинки зарубежного кино) ·%· Али, рули! / Stuber (2019) BDRip 1080p от селезень | iTunes Galfimbul ghost 90434029848.42 GB 0 0 1570431615

10:00

7-Окт-19

Зарубежные фильмы 2016-2019 (Новинки зарубежного кино) ·%· Али, рули! / Stuber (2019) UHD BDRip 1080p от селезень | iTunes Galfimbul ghost 82498068267.68 GB 0 0 1570326015

04:40

6-Окт-19

Зарубежные фильмы 2016-2019 (Новинки зарубежного кино) ·%· Али, рули! / Stuber (2019) UHD BDRemux 2160p от селезень | 4K | HDR | iTunes Galfimbul ghost 5007591183346.64 GB 0 0 1570288813

18:20

5-Окт-19

Зарубежные фильмы 2016-2019 (Новинки зарубежного кино) ·%· Али, рули! / Stuber (2019) BDRip 1080p от селезень | iTunes Galfimbul ghost 88775710718.27 GB 0 0 1570284010

17:00

5-Окт-19

Зарубежные фильмы 2016-2019 (Новинки зарубежного кино) ·%· Али, рули! / Stuber (2019) BDRip 1080p | iTunes Galfimbul ghost 73131163356.81 GB 0 0 1570270808

13:20

5-Окт-19

Зарубежные фильмы 2016-2019 (Новинки зарубежного кино) ·%· Али, рули! / Stuber (2019) WEB-DL 720p | iTunes Galfimbul ghost 27989330712.61 GB 0 0 1570205408

19:10

4-Окт-19

Зарубежные фильмы 2016-2019 (Новинки зарубежного кино) ·%· Али, рули! / Stuber (2019) WEB-DL 1080p | D | iTunes Galfimbul ghost 53769522065.01 GB 0 0 1570198840

17:20

4-Окт-19

Зарубежные фильмы 2016-2019 (Новинки зарубежного кино) ·%· Али, рули! / Stuber (2019) WEB-DL 1080p | iTunes Galfimbul ghost 54659166085.09 GB 0 0 1570198832

17:20

4-Окт-19

Superjob
dpd RU

Еще никто не оставлял запись к записи скачать торрент Али, рули! Stuber . Будь первым!

!Обратная связь