Скачать через торрент Алена Alena Фильм бесплатно в хорошем качестве torrent

Скачивайте на UnionPeer.org фильмы через торрент без регистрации. Новинки кино в хорошем качестве через торрент. На UnionPeer.org можно скачать через торрент фильмы 2014 и 2015 годов. Самые новые фильмы.

Скачать торрент Алена Alena бесплатно через .torrent фильм мультфильм сериал

Статистика раздачи
Размер:  4.05 GB   |    Зарегистрирован:  4 года 4 месяца   |    .torrent скачан:  39 раз   |   
Раздают:  1  
 

Скачать Алена / Alena (2015) WEB-DL 1080p | L1 через torrent

 
 
Автор Сообщение

Galfimbul

avatar Galfimbul


Алена /Alena

Год выхода: 2015
Жанр: Ужасы, триллер, драма
Режиссер: Даниель ди Градо
В ролях: Амалия Хольм, Молли Натли, Ребекка Ниман, Хелена Аф Сандеберг, Малин Перссон, Йохан Эн, Ульрика Эллемарк, Фанни Клефельт, Мари Сенхор, Фелисе Янкелль, Макс Нилен

О фильме:
Алёна — новая ученица в элитном пансионе для девочек из богатых семей. Новые одноклассницы сразу невзлюбили её и решили извести всеми возможными способами. Но у Алёны есть лучшая подруга Йозефина, которая всегда готова встать на её защиту.



Страна: Швеция
Студия: Silvio Entertainment, Sveriges Television (SVT), Svenska Filminstitutet (SFI)
Продолжительность: 01:23:18
Перевод: Любительский одноголосый | VO Старый

Файл
Кодек: AVC
Качество: WEB-DL 1080p | Alena.2015.1080p.AMZN.WEB-DL.DDP2.0.x264-NTG
Видео: MPEG-4 AVC, 6537 Kбит/с, 1920x872, 24.000 кадр/с
Звук: ? Без Рекламы!
Аудио #1: Русский (АС3, 2 ch, 192 Кбит/с, 48.0 KHz) Любительский (одноголосый, закадровый) Старый
Аудио #2: Шведский (E-АС3, 2 ch, 224 Кбит/с, 48.0 KHz)
Субтитры: Русские (перевод: Михаил Васильев), английские
Источник: Alena.2015.1080p.AMZN.WEB-DL.DDP2.0.x264-NTG
General
Unique ID : 198017381481918899467776021506403198251 (0x94F8C2ACE2983BF88A9D79447885E52B)
Complete name : Alena.2015.AMZN.WEB-DL.1080p.mkv
Format : Matroska
Format version : Version 4
File size : 4.05 GiB
Duration : 1 h 23 min
Overall bit rate mode : Variable
Overall bit rate : 6 955 kb/s
Encoded date : UTC 2019-10-26 11:46:15
Writing application : mkvmerge v7.1.0 ('Good Love') 64bit built on Jul 27 2014 13:06:55
Writing library : libebml v1.3.0 + libmatroska v1.4.1

Video
ID : 1
Format : AVC
Format/Info : Advanced Video Codec
Format profile : High@L4
Format settings : CABAC / 4 Ref Frames
Format settings, CABAC : Yes
Format settings, Reference fra : 4 frames
Codec ID : V_MPEG4/ISO/AVC
Duration : 1 h 23 min
Bit rate mode : Variable
Bit rate : 6 537 kb/s
Maximum bit rate : 15.0 Mb/s
Width : 1 920 pixels
Height : 872 pixels
Display aspect ratio : 2.2:1
Original display aspect ratio : 2.2:1
Frame rate mode : Constant
Frame rate : 24.000 FPS
Color space : YUV
Chroma subsampling : 4:2:0
Bit depth : 8 bits
Scan type : Progressive
Bits/(Pixel*Frame) : 0.163
Stream size : 3.80 GiB (94%)
Language : English
Default : Yes
Forced : No
Color range : Limited
Color primaries : BT.709
Transfer characteristics : BT.709
Matrix coefficients : BT.709

Audio #1
ID : 2
Format : AC-3
Format/Info : Audio Coding 3
Commercial name : Dolby Digital
Codec ID : A_AC3
Duration : 1 h 23 min
Bit rate mode : Constant
Bit rate : 192 kb/s
Channel(s) : 2 channels
Channel layout : L R
Sampling rate : 48.0 kHz
Frame rate : 31.250 FPS (1536 SPF)
Bit depth : 16 bits
Compression mode : Lossy
Stream size : 114 MiB (3%)
Language : Russian
Service kind : Complete Main
Default : Yes
Forced : No

Audio #2
ID : 3
Format : E-AC-3
Format/Info : Enhanced AC-3
Commercial name : Dolby Digital Plus
Codec ID : A_EAC3
Duration : 1 h 23 min
Bit rate mode : Constant
Bit rate : 224 kb/s
Channel(s) : 2 channels
Channel layout : L R
Sampling rate : 48.0 kHz
Frame rate : 31.250 FPS (1536 SPF)
Compression mode : Lossy
Stream size : 133 MiB (3%)
Language : Swedish
Service kind : Complete Main
Default : No
Forced : No

Text #1
ID : 4
Format : UTF-8
Codec ID : S_TEXT/UTF8
Codec ID/Info : UTF-8 Plain Text
Duration : 1 h 20 min
Bit rate : 38 b/s
Count of elements : 640
Stream size : 22.8 KiB (0%)
Language : Russian
Default : No
Forced : No

Text #2
ID : 5
Format : UTF-8
Codec ID : S_TEXT/UTF8
Codec ID/Info : UTF-8 Plain Text
Duration : 1 h 16 min
Bit rate : 31 b/s
Count of elements : 582
Stream size : 17.6 KiB (0%)
Language : English
Default : No
Forced : No
Источник http://BlaTor.org

Внимание! AdBlock блокирует показ скриншотов, все вопросы к разработчикам )))
Трекер:  [ 26-Окт-2019 16:10 ]

  

Скачать .torrent

Размер .torrent файла 10 KB


Размер: 4.05 GB
Хэш (hash) релиза: 4ba04b1b7eec63461b7c16e188ddc0c779dfc9dd
Подписка на обновления:

Торренты, похожие на Алена Alena скачать торрент

Форум Название Автор Размер S L Добавлен
Зарубежные фильмы 2016-2019 (Новинки зарубежного кино) ·· Алена / Alena (Даниель ди Градо) [2015, ужасы, триллер, драма, DVDRip] Galfimbul 15639900081.46 GB 0 0 1496177272

23:47

30-Май-17

Еще никто не оставлял запись к записи скачать торрент Алена Alena . Будь первым!

!Обратная связь