Скачать через торрент Страшные истории для рассказа в темноте Scary Stories to Tell in the Dark Фильм бесплатно в хорошем качестве torrent

Скачивайте на UnionPeer.org фильмы через торрент без регистрации. Новинки кино в хорошем качестве через торрент. На UnionPeer.org можно скачать через торрент фильмы 2014 и 2015 годов. Самые новые фильмы.

Скачать торрент Страшные истории для рассказа в темноте Scary Stories to Tell in the Dark бесплатно через .torrent фильм мультфильм сериал

Статистика раздачи
Размер:  7.33 GB   |    Зарегистрирован:  4 года 3 месяца   |    .torrent скачан:  72 раза   |   
Раздают:  1  
 

Скачать Страшные истории для рассказа в темноте / Scary Stories to Tell in the Dark (2019) BDRip 1080p от селезень | iTunes через torrent

 
 
Автор Сообщение

Galfimbul

avatar Galfimbul


Страшные истории для рассказа в темноте /Scary Stories to Tell in the Dark

Год выхода: 2019
Жанр: Ужасы, триллер
Режиссер: Андре Овредал
В ролях: Зои Маргарет Коллетти, Майкл Гарза, Гэбриел Раш, Остин Абрамс, Дин Норрис, Джил Беллоуз, Лоррейн Туссен, Остин Зажур, Натали Гэнзхорн, Кэтлин Поллард



О фильме: Компании подростков предстоит разгадать тайну зловещих смертей, которые наводят ужас на всю округу. Они должны преодолеть страх, чтобы спасти свой город.

Страна: США, Канада, Китай
Студия: 1212 Entertainment, CBS Films
Продолжительность: 01:47:57
Перевод: Дублированный | iTunes

Качество: BDRip 1080p
Видео: MPEG-4 AVC, 1920x804, 8700 Kbit/s, 23.976 fps
Аудио #01: 48 kHz, AC3, 5.1, 384 Kbps | iTunes | RUS |
Аудио #02: 48 kHz, AC3, 5.1, 640 Kbps | Оригинал | ENG |
Субтитры: Английские

General
Unique ID : 32458133324232573725243326754059322640 (0x186B3586F99A8A6FBA9C3817E6620510)
Complete name : D:Video111Scary.Stories.to.Tell.in.the.Dark.2019.BDRip.1080p.seleZen.mkv
Format : Matroska
Format version : Version 4
File size : 7.33 GiB
Duration : 1 h 47 min
Overall bit rate : 9 719 kb/s
Movie name : Scary Stories to Tell in the Dark 2019 from селезень
Encoded date : UTC 2019-10-27 12:10:02
Writing application : mkvmerge v22.0.0 ('At The End Of The World') 64-bit
Writing library : libebml v1.3.5 + libmatroska v1.4.8

Video
ID : 1
Format : AVC
Format/Info : Advanced Video Codec
Format profile : [email protected]
Format settings : CABAC / 5 Ref Frames
Format settings, CABAC : Yes
Format settings, Reference : 5 frames
Codec ID : V_MPEG4/ISO/AVC
Duration : 1 h 47 min
Bit rate : 8 700 kb/s
Width : 1 920 pixels
Height : 804 pixels
Display aspect ratio : 2.40:1
Frame rate mode : Constant
Frame rate : 23.976 (24000/1001) FPS
Color space : YUV
Chroma subsampling : 4:2:0
Bit depth : 8 bits
Scan type : Progressive
Bits/(Pixel*Frame) : 0.235
Stream size : 6.56 GiB (89%)
Title : Encoded by seleZen
Writing library : x264 core 148 r2705kMod 3f5ed56
Encoding settings : cabac=1 / ref=5 / deblock=1:-2:-2 / analyse=0x3:0x113 / me=umh / subme=11 / psy=1 / fade_compensate=0.00 / psy_rd=1.02:0.00 / mixed_ref=1 / me_range=32 / chroma_me=1 / trellis=2 / 8x8dct=1 / cqm=0 / deadzone=21,11 / fast_pskip=0 / chroma_qp_offset=-2 / threads=24 / lookahead_threads=6 / sliced_threads=0 / nr=0 / decimate=0 / interlaced=0 / bluray_compat=0 / constrained_intra=0 / fgo=0 / bframes=15 / b_pyramid=2 / b_adapt=2 / b_bias=0 / direct=3 / weightb=1 / open_gop=0 / weightp=2 / keyint=240 / keyint_min=23 / scenecut=40 / intra_refresh=0 / rc_lookahead=50 / rc=2pass / mbtree=0 / bitrate=8700 / ratetol=1.0 / qcomp=0.60 / qpmin=0 / qpmax=51 / qpstep=4 / cplxblur=20.0 / qblur=0.5 / vbv_maxrate=50000 / vbv_bufsize=62500 / nal_hrd=none / filler=0 / ip_ratio=1.40 / pb_ratio=1.30 / aq=3:0.80
Language : English
Default : Yes
Forced : No

Audio #1
ID : 2
Format : AC-3
Format/Info : Audio Coding 3
Commercial name : Dolby Digital
Codec ID : A_AC3
Duration : 1 h 47 min
Bit rate mode : Constant
Bit rate : 384 kb/s
Channel(s) : 6 channels
Channel layout : L R C LFE Ls Rs
Sampling rate : 48.0 kHz
Frame rate : 31.250 FPS (1536 SPF)
Bit depth : 16 bits
Compression mode : Lossy
Stream size : 297 MiB (4%)
Title : iTunes
Language : Russian
Service kind : Complete Main
Default : Yes
Forced : Yes

Audio #2
ID : 3
Format : AC-3
Format/Info : Audio Coding 3
Commercial name : Dolby Digital
Codec ID : A_AC3
Duration : 1 h 47 min
Bit rate mode : Constant
Bit rate : 640 kb/s
Channel(s) : 6 channels
Channel layout : L R C LFE Ls Rs
Sampling rate : 48.0 kHz
Frame rate : 31.250 FPS (1536 SPF)
Bit depth : 16 bits
Compression mode : Lossy
Stream size : 494 MiB (7%)
Title : Original
Language : English
Service kind : Complete Main
Default : No
Forced : No

Text
ID : 4
Format : UTF-8
Codec ID : S_TEXT/UTF8
Codec ID/Info : UTF-8 Plain Text
Duration : 1 h 39 min
Bit rate : 45 b/s
Count of elements : 1244
Stream size : 32.8 KiB (0%)
Title : Full
Language : English
Default : No
Forced : No

Menu
00:00:00.000 : en:00:00:00.000
00:05:44.386 : en:00:05:44.386
00:13:23.052 : en:00:13:23.052
00:18:52.131 : en:00:18:52.131
00:25:34.741 : en:00:25:34.741
00:28:31.168 : en:00:28:31.168
00:36:17.300 : en:00:36:17.300
00:47:06.282 : en:00:47:06.282
00:54:17.170 : en:00:54:17.170
00:58:36.304 : en:00:58:36.304
01:02:36.377 : en:01:02:36.377
01:11:04.677 : en:01:11:04.677
01:17:59.425 : en:01:17:59.425
01:24:33.902 : en:01:24:33.902
01:29:53.179 : en:01:29:53.179
01:38:30.279 : en:01:38:30.279

Источник http://BlaTor.org

Внимание! AdBlock блокирует показ скриншотов, все вопросы к разработчикам )))
Трекер:  [ 27-Окт-2019 15:30 ]

  

Скачать .torrent

Размер .torrent файла 9 KB


Размер: 7.33 GB
Хэш (hash) релиза: c9826e874b42654b34feee956979104728a76533
Подписка на обновления:

Торренты, похожие на Страшные истории для рассказа в темноте Scary Stories to Tell in the Dark скачать торрент

Форум Название Автор Размер S L Добавлен
Зарубежные фильмы 2016-2019 (Новинки зарубежного кино) ·%· Страшные истории для рассказа в темноте / Scary Stories to Tell in the Dark (2019) BDRip-HEVC 1080p от HEVC-CLUB | iTunes Galfimbul 51881998314.83 GB 0 0 1572941411

11:10

5-Ноя-19

Зарубежные фильмы 2016-2019 (Новинки зарубежного кино) ·%· Страшные истории для рассказа в темноте / Scary Stories to Tell in the Dark (2019) BDRip-AVC от OlLanDGroup | iTunes Galfimbul 781813774746 MB 0 0 1572328831

09:00

29-Окт-19

Зарубежные фильмы 2016-2019 (Новинки зарубежного кино) ·%· Страшные истории для рассказа в темноте / Scary Stories to Tell in the Dark (2019) BDRip | iTunes Galfimbul 23295544942.17 GB 0 0 1572285020

20:50

28-Окт-19

Зарубежные фильмы 2016-2019 (Новинки зарубежного кино) ·%· Страшные истории для рассказа в темноте / Scary Stories to Tell in the Dark (2019) BDRip-AVC от ExKinoRay | iTunes Galfimbul 18823884721.75 GB 0 0 1572219008

02:30

28-Окт-19

Зарубежные фильмы 2016-2019 (Новинки зарубежного кино) ·%· Страшные истории для рассказа в темноте / Scary Stories to Tell in the Dark (2019) BDRip | iTunes Galfimbul 784154624748 MB 0 0 1572213011

00:50

28-Окт-19

Зарубежные фильмы 2016-2019 (Новинки зарубежного кино) ·%· Страшные истории для рассказа в темноте / Scary Stories to Tell in the Dark (2019) BDRip 720p от селезень | iTunes Galfimbul 41455299073.86 GB 0 0 1572189023

18:10

27-Окт-19

Зарубежные фильмы 2016-2019 (Новинки зарубежного кино) ·%· Страшные истории для рассказа в темноте / Scary Stories to Tell in the Dark (2019) BDRemux 1080p от селезень | iTunes Galfimbul 3072184102928.61 GB 0 0 1572160207

10:10

27-Окт-19

Зарубежные фильмы 2016-2019 (Новинки зарубежного кино) ·%· Страшные истории для рассказа в темноте / Scary Stories to Tell in the Dark (2019) UHD BDRemux 2160p от селезень | 4K | HDR | iTunes Galfimbul 5425620933050.53 GB 0 0 1572094253

15:50

26-Окт-19

Зарубежные фильмы 2016-2019 (Новинки зарубежного кино) ·%· Страшные истории для рассказа в темноте / Scary Stories to Tell in the Dark (2019) WEBRip 720p | iTunes Galfimbul 35529508623.31 GB 0 0 1571754010

17:20

22-Окт-19

Зарубежные фильмы 2016-2019 (Новинки зарубежного кино) ·%· Страшные истории для рассказа в темноте / Scary Stories to Tell in the Dark (2019) WEB-DL 1080p | iTunes Galfimbul 66440077876.19 GB 0 0 1571748010

15:40

22-Окт-19

Зарубежные фильмы 2016-2019 (Новинки зарубежного кино) ·%· Страшные истории для рассказа в темноте / Scary Stories to Tell in the Dark (2019) WEB-DLRip | КПК | iTunes Galfimbul 495202121472 MB 0 0 1570882810

15:20

12-Окт-19

Зарубежные фильмы 2016-2019 (Новинки зарубежного кино) ·%· Страшные истории для рассказа в темноте / Scary Stories to Tell in the Dark (2019) WEB-DLRip от Scarabey | iTunes Galfimbul 16192061441.51 GB 0 0 1570812015

19:40

11-Окт-19

Зарубежные фильмы 2016-2019 (Новинки зарубежного кино) ·%· Страшные истории для рассказа в темноте / Scary Stories to Tell in the Dark (2019) WEB-DLRip-AVC | iTunes Galfimbul 781186380745 MB 0 0 1570719607

18:00

10-Окт-19

Зарубежные фильмы 2016-2019 (Новинки зарубежного кино) ·%· Страшные истории для рассказа в темноте / Scary Stories to Tell in the Dark (2019) WEB-DLRip-AVC от OlLanDGroup | iTunes Galfimbul 17448663101.63 GB 0 0 1570712410

16:00

10-Окт-19

Зарубежные фильмы 2016-2019 (Новинки зарубежного кино) ·%· Страшные истории для рассказа в темноте / Scary Stories to Tell in the Dark (2019) WEB-DLRip от MegaPeer | iTunes Galfimbul 15682027521.46 GB 0 0 1570652445

23:20

9-Окт-19

Зарубежные фильмы 2016-2019 (Новинки зарубежного кино) ·%· Страшные истории для рассказа в темноте / Scary Stories to Tell in the Dark (2019) WEB-DL 1080p от селезень | iTunes Galfimbul 38313604953.57 GB 0 0 1570647607

22:00

9-Окт-19

Еще никто не оставлял запись к записи скачать торрент Страшные истории для рассказа в темноте Scary Stories to Tell in the Dark . Будь первым!

!Обратная связь