Скачать через торрент Синяя бездна 2 47 Meters Down: Uncaged Фильм бесплатно в хорошем качестве torrent

Скачивайте на UnionPeer.org фильмы через торрент без регистрации. Новинки кино в хорошем качестве через торрент. На UnionPeer.org можно скачать через торрент фильмы 2014 и 2015 годов. Самые новые фильмы.

Скачать торрент Синяя бездна 2 47 Meters Down: Uncaged бесплатно через .torrent фильм мультфильм сериал

Статистика раздачи
Размер:  3.3 GB   |    Зарегистрирован:  19 дней   |    .torrent скачан:  183 раза   |   
Раздают:  2  
 

Скачать Синяя бездна 2 / 47 Meters Down: Uncaged (2019) WEB-DL 1080p от селезень | iTunes через torrent

 
загрузка...
 
Автор Сообщение

Galfimbul

avatar Galfimbul


Синяя бездна 2 /47 Meters Down: Uncaged

Год выхода: 2019
Жанр: Ужасы, триллер, драма, приключения
Режиссер: Йоханнес Робертс
В ролях: Софи Нелисс, Корина Фокс, Бриэнн Тджу, Систин Роуз Сталлоне, Брэк Бэссинджер, Ниа Лонг, Джон Корбетт, Дави Сантос, Кайлин Рамбо, Аксель Мансилла



О фильме: Три подруги отправляются исследовать подводный разрушенный город, но вскоре выясняют, что посмотреть на руины приплыли не они одни. Запланированное развлечение оборачивается кошмаром - теперь ныряльщицам придется спасаться от кровожадных акул.

Страна: Великобритания, США
Студия: thefyzz
Продолжительность: 01:29:38
Перевод: Дублированный | iTunes

Качество: WEB-DL 1080p
Видео: MPEG-4 AVC, 1920x804, 4504 Kbit/s, 24 fps
Аудио #01: 48 kHz, AC3, 5.1, 384 Kbps | iTunes | RUS |
Аудио #02: 48 kHz, AC3, 5.1, 384 Kbps | Оригинал | ENG |
Субтитры: Русские (Full)

General
Unique ID : 108688652219381815961072929952020935884 (0x51C4AC493B873DCD0E1F92BCDE75B4CC)
Complete name : D:Video11147.Meters.Down.Uncaged.2019.WEB-DL.1080p.seleZen.mkv
Format : Matroska
Format version : Version 4
File size : 3.30 GiB
Duration : 1 h 29 min
Overall bit rate : 5 274 kb/s
Movie name : 47 Meters Down: Uncaged 2019 from селезень
Encoded date : UTC 2019-10-28 20:36:27
Writing application : mkvmerge v22.0.0 ('At The End Of The World') 64-bit
Writing library : libebml v1.3.5 + libmatroska v1.4.8

Video
ID : 1
Format : AVC
Format/Info : Advanced Video Codec
Format profile : High@L4
Format settings : CABAC / 5 Ref Frames
Format settings, CABAC : Yes
Format settings, Reference : 5 frames
Codec ID : V_MPEG4/ISO/AVC
Duration : 1 h 29 min
Bit rate : 4 504 kb/s
Width : 1 920 pixels
Height : 804 pixels
Display aspect ratio : 2.40:1
Frame rate mode : Constant
Frame rate : 24.000 FPS
Color space : YUV
Chroma subsampling : 4:2:0
Bit depth : 8 bits
Scan type : Progressive
Bits/(Pixel*Frame) : 0.122
Stream size : 2.82 GiB (85%)
Language : English
Default : Yes
Forced : No
Color range : Limited
Color primaries : BT.709
Transfer characteristics : BT.709
Matrix coefficients : BT.709

Audio #1
ID : 2
Format : AC-3
Format/Info : Audio Coding 3
Commercial name : Dolby Digital
Codec ID : A_AC3
Duration : 1 h 29 min
Bit rate mode : Constant
Bit rate : 384 kb/s
Channel(s) : 6 channels
Channel layout : L R C LFE Ls Rs
Sampling rate : 48.0 kHz
Frame rate : 31.250 FPS (1536 SPF)
Bit depth : 16 bits
Compression mode : Lossy
Stream size : 246 MiB (7%)
Title : iTunes
Language : Russian
Service kind : Complete Main
Default : Yes
Forced : Yes

Audio #2
ID : 3
Format : AC-3
Format/Info : Audio Coding 3
Commercial name : Dolby Digital
Codec ID : A_AC3
Duration : 1 h 29 min
Bit rate mode : Constant
Bit rate : 384 kb/s
Channel(s) : 6 channels
Channel layout : L R C LFE Ls Rs
Sampling rate : 48.0 kHz
Frame rate : 31.250 FPS (1536 SPF)
Bit depth : 16 bits
Compression mode : Lossy
Stream size : 246 MiB (7%)
Title : Original
Language : English
Service kind : Complete Main
Default : No
Forced : No

Text
ID : 4
Format : UTF-8
Codec ID : S_TEXT/UTF8
Codec ID/Info : UTF-8 Plain Text
Duration : 1 h 16 min
Bit rate : 59 b/s
Count of elements : 789
Stream size : 33.6 KiB (0%)
Title : Full
Language : Russian
Default : No
Forced : No

Menu
00:00:00.000 : en:Глава 1
00:05:21.291 : en:Глава 2
00:12:18.665 : en:Глава 3
00:19:37.873 : en:Глава 4
00:26:12.331 : en:Глава 5
00:36:57.371 : en:Глава 6
00:44:21.287 : en:Глава 7
00:51:40.620 : en:Глава 8
01:00:39.078 : en:Глава 9
01:07:42.744 : en:Глава 10
01:14:57.077 : en:Глава 11
Источник http://BlaTor.org

Трекер:  [ 28-Окт-2019 23:50 ]

  

Скачать .torrent

Размер .torrent файла 4 KB


Размер: 3.3 GB
Хэш (hash) релиза: 03dc5e16d090e707fe1a07b0b167a17c36fe907c
Подписка на обновления:

Торренты, похожие на Синяя бездна 2 47 Meters Down: Uncaged скачать торрент

Форум Название Автор Размер S L Добавлен
Зарубежные фильмы 2016-2018 (Новинки зарубежного кино) ·%· Синяя бездна 2 / 47 Meters Down: Uncaged (2019) BDRip-HEVC 1080p от HEVC-CLUB | iTunes Galfimbul 84792764357.9 GB 0 0 1572892815

21:40

4-Ноя-19

Зарубежные фильмы 2016-2018 (Новинки зарубежного кино) ·%· Синяя бездна 2 / 47 Meters Down: Uncaged (2019) BDRip от Twister & ExKinoRay | iTunes Galfimbul 15274279141.42 GB 2 0 1572891612

21:20

4-Ноя-19

Зарубежные фильмы 2016-2018 (Новинки зарубежного кино) ·%· Синяя бездна 2 / 47 Meters Down: Uncaged (2019) BDRip-AVC от OlLanDGroup | iTunes Galfimbul 777401767741 MB 0 0 1572850212

09:50

4-Ноя-19

Зарубежные фильмы 2016-2018 (Новинки зарубежного кино) ·%· Синяя бездна 2 / 47 Meters Down: Uncaged (2019) BDRip | iTunes Galfimbul 784199680748 MB 0 0 1572846667

08:51

4-Ноя-19

Зарубежные фильмы 2016-2018 (Новинки зарубежного кино) ·%· Синяя бездна 2 / 47 Meters Down: Uncaged (2019) BDRip 720p от SuperMin | D | iTunes Galfimbul 36382644493.39 GB 0 0 1572786609

16:10

3-Ноя-19

Зарубежные фильмы 2016-2018 (Новинки зарубежного кино) ·%· Синяя бездна 2 / 47 Meters Down: Uncaged (2019) BDRip-AVC | iTunes Galfimbul 15230770841.42 GB 0 0 1572763220

09:40

3-Ноя-19

Зарубежные фильмы 2016-2018 (Новинки зарубежного кино) ·%· Синяя бездна 2 / 47 Meters Down: Uncaged (2019) BDRip | iTunes Galfimbul 15252090881.42 GB 0 0 1572748811

05:40

3-Ноя-19

Зарубежные фильмы 2016-2018 (Новинки зарубежного кино) ·%· Синяя бездна 2 / 47 Meters Down: Uncaged (2019) BDRemux 1080p от селезень | iTunes Galfimbul 1932831048518 GB 2 0 1572735615

02:00

3-Ноя-19

Зарубежные фильмы 2016-2018 (Новинки зарубежного кино) ·%· Синяя бездна 2 / 47 Meters Down: Uncaged (2019) WEB-DLRip от ExKinoRay | KПK | D | iTunes Galfimbul 430317704410 MB 0 0 1572503425

09:30

31-Окт-19

Зарубежные фильмы 2016-2018 (Новинки зарубежного кино) ·%· Синяя бездна 2 / 47 Meters Down: Uncaged (2019) WEB-DLRip от Scarabey | iTunes Galfimbul 15514726401.44 GB 0 0 1572453644

19:40

30-Окт-19

Зарубежные фильмы 2016-2018 (Новинки зарубежного кино) ·%· Синяя бездна 2 / 47 Meters Down: Uncaged (2019) WEB-DLRip-AVC от OlLanDGroup | iTunes Galfimbul 14546936601.35 GB 2 0 1572372014

21:00

29-Окт-19

Зарубежные фильмы 2016-2018 (Новинки зарубежного кино) ·%· Синяя бездна 2 / 47 Meters Down: Uncaged (2019) WEB-DLRip-AVC от ExKinoRay | iTunes Galfimbul 14691207731.37 GB 0 0 1572370815

20:40

29-Окт-19

Зарубежные фильмы 2016-2018 (Новинки зарубежного кино) ·%· Синяя бездна 2 / 47 Meters Down: Uncaged (2019) WEB-DLRip-AVC от ExKinoRay | iTunes Galfimbul 781436335745 MB 0 0 1572369616

20:20

29-Окт-19

Зарубежные фильмы 2016-2018 (Новинки зарубежного кино) ·%· Синяя бездна 2 / 47 Meters Down: Uncaged (2019) WEB-DLRip от ExKinoRay | D | iTunes Galfimbul 781199360745 MB 0 0 1572362417

18:20

29-Окт-19

Зарубежные фильмы 2016-2018 (Новинки зарубежного кино) ·%· Синяя бездна 2 / 47 Meters Down: Uncaged (2019) WEB-DLRip | iTunes Galfimbul 779968512744 MB 0 0 1572339619

12:00

29-Окт-19

Зарубежные фильмы 2016-2018 (Новинки зарубежного кино) ·%· Синяя бездна 2 / 47 Meters Down: Uncaged (2019) WEB-DL 720p от селезень | iTunes Galfimbul 31784712002.96 GB 0 0 1572299412

00:50

29-Окт-19

Зарубежные фильмы 2016-2018 (Новинки зарубежного кино) ·%· Синяя бездна 2 / 47 Meters Down: Uncaged (2019) WEB-DLRip от MegaPeer | iTunes Galfimbul 15684628481.46 GB 0 0 1572297014

00:10

29-Окт-19

Еще никто не оставлял запись к записи скачать торрент Синяя бездна 2 47 Meters Down: Uncaged . Будь первым!

!Обратная связь