Скачать через торрент Тайна печати дракона Фильм бесплатно в хорошем качестве torrent

Скачивайте на UnionPeer.org фильмы через торрент без регистрации. Новинки кино в хорошем качестве через торрент. На UnionPeer.org можно скачать через торрент фильмы 2014 и 2015 годов. Самые новые фильмы.

Скачать торрент Тайна печати дракона бесплатно через .torrent фильм мультфильм сериал

Статистика раздачи
Размер:  3.49 GB   |    Зарегистрирован:  13 дней   |    .torrent скачан:  385 раз   |   
Раздают:  9   Качают:  2  
 

Скачать Тайна печати дракона (2019) WEBRip 1080p | D через torrent

 
загрузка...
 
Автор Сообщение

Galfimbul

avatar Galfimbul


Тайна печати дракона



[b]Год выхода:
2019
Жанр: Приключения
Страна: Россия, Китай
Переводы: Дублированный
Продолжительность: 01:54:27
Режиссер: Олег Степченко
В ролях: Джейсон Флеминг, Арнольд Шварценеггер, Чарльз Дэнс, Джеки Чан, Яо Синтун, Кристофер Фэйрбэнк, Рутгер Хауэр, Мартин Клебба, Юрий Колокольников, Павел Воля и др.

О фильме: Английский путешественник Джонатан Грин получает от Петра I заказ на изготовление карт Дальнего Востока России. Ему вновь предстоит долгий путь, полный невероятных приключений, который приведет его в Китай. Картограф столкнется с массой головокружительных открытий, неожиданных встреч с диковинными существами, китайскими принцессами, мастерами смертоносных боевых искусств и самим Лун-Ван, Царем всех драконов. Что может быть опаснее, чем посмотреть в глаза Вию? Разве что встретиться с ним вновь. Что на этот раз окажется сильнее — непоколебимый скептицизм ученого или древняя черная магия, уже давно захватившая власть в Восточных землях?



Файл
Качество: WEBRip 1080p
Видео: MPEG-4 AVC, 1920x1080, 4199 kbps, 25,000 fps
Звук: русский, AAC, 2.0 ch, 48 kHz, 160 kbps
Субтитры: русские (форс. вшитые)
Общее
Уникальный идентификатор : 227885910987823779808550085942194092261 (0xAB713AE076A8D070B46D72994FEA38E5)
Полное имя : G:Torrent2TajnaPechatiDrakonaWebRip1080p.mkv
Формат : Matroska
Версия формата : Version 4 / Version 2
Размер файла : 3,49 Гбайт
Продолжительность : 1 ч. 54 м.
Общий поток : 4362 Кбит/сек
Дата кодирования : UTC 2019-11-03 16:02:36
Программа кодирования : mkvmerge v9.5.0 ('Quiet Fire') 64bit
Библиотека кодирования : libebml v1.3.4 + libmatroska v1.4.5

Видео
Идентификатор : 1
Формат : AVC
Формат/Информация : Advanced Video Codec
Профиль формата : High@L4
Настройки формата : CABAC / 4 Ref Frames
Параметр CABAC формата : Да
Параметр RefFrames формата : 4 кадра
Идентификатор кодека : V_MPEG4/ISO/AVC
Продолжительность : 1 ч. 54 м.
Битрейт : 4199 Кбит/сек
Ширина : 1920 пикселей
Высота : 1080 пикселей
Соотношение сторон : 16:9
Режим частоты кадров : Постоянный
Частота кадров : 25,000 кадров/сек
Цветовое пространство : YUV
Субдискретизация насыщенности : 4:2:0
Битовая глубина : 8 бит
Тип развёртки : Прогрессивная
Бит/(Пиксели*Кадры) : 0.081
Размер потока : 3,36 Гбайт (96%)
Язык : Russian
Default : Да
Forced : Нет
Цветовой диапазон : Limited
Основные цвета : BT.709
Характеристики трансфера : BT.709
Коэффициенты матрицы : BT.709

Аудио
Идентификатор : 2
Формат : AAC
Формат/Информация : Advanced Audio Codec
Профиль формата : LC
Идентификатор кодека : A_AAC-2
Продолжительность : 1 ч. 54 м.
Битрейт : 160 Кбит/сек
Каналы : 2 канала
Расположение каналов : Front: L R
Частота : 48,0 КГц
Частота кадров : 46,875 кадров/сек (1024 SPF)
Метод сжатия : С потерями
Задержка видео : 5 мс.
Размер потока : 131 Мбайт (4%)
Язык : Russian
Default : Да
Forced : Нет
Релиз от:
Источник http://BlaTor.org

Трекер:  [ 03-Ноя-2019 22:30 ]

  

Скачать .torrent

Размер .torrent файла 18 KB


Размер: 3.49 GB
Хэш (hash) релиза: 9a62572f45084864df773a5d26f6acc302429706
Подписка на обновления:

Торренты, похожие на Тайна печати дракона скачать торрент

Форум Название Автор Размер S L Добавлен
Российские фильмы 2016-2018 (Новинки русского кино) ·%· Тайна печати дракона (2019) WEBRip от ExKinoRay | KПK | D Galfimbul 541841401517 MB 2 0 1573236614

21:10

8-Ноя-19

Российские фильмы 2016-2018 (Новинки русского кино) ·%· Тайна печати дракона (2019) WEBRip от ExKinoRay | D Galfimbul 783290368747 MB 0 0 1573146017

20:00

7-Ноя-19

Российские фильмы 2016-2018 (Новинки русского кино) ·%· Тайна печати дракона (2019) WEBRip-AVC от ExKinoRay | D Galfimbul 780720702745 MB 0 0 1572973828

20:10

5-Ноя-19

Российские фильмы 2016-2018 (Новинки русского кино) ·%· Тайна печати дракона (2019) WEB-DLRip-AVC от Files-x | D Galfimbul 21921197952.04 GB 0 0 1572947418

12:50

5-Ноя-19

Российские фильмы 2016-2018 (Новинки русского кино) ·%· Тайна печати дракона (2019) WEBRip-AVC от OllanDGroup | D Galfimbul 20217528621.88 GB 0 0 1572878440

17:40

4-Ноя-19

Российские фильмы 2016-2018 (Новинки русского кино) ·%· Тайна печати дракона (2019) WEBRip от Scarabey | D Galfimbul 15551057921.45 GB 0 0 1572864682

13:51

4-Ноя-19

Российские фильмы 2016-2018 (Новинки русского кино) ·%· Тайна печати дракона (2019) WEBRip-AVC от ExKinoRay | D Galfimbul 15550769771.45 GB 0 0 1572835856

05:50

4-Ноя-19

Еще никто не оставлял запись к записи скачать торрент Тайна печати дракона . Будь первым!

!Обратная связь