Скачать через торрент Тайна печати дракона Фильм бесплатно в хорошем качестве torrent

Скачивайте на UnionPeer.org фильмы через торрент без регистрации. Новинки кино в хорошем качестве через торрент. На UnionPeer.org можно скачать через торрент фильмы 2014 и 2015 годов. Самые новые фильмы.

Скачать торрент Тайна печати дракона бесплатно через .torrent фильм мультфильм сериал

Статистика раздачи
Размер:  1.88 GB   |    Зарегистрирован:  1 месяц 10 дней   |    .torrent скачан:  95 раз   |   
Раздают:  1  
 

Скачать Тайна печати дракона (2019) WEBRip-AVC от OllanDGroup | D через torrent

 
загрузка...
 
Автор Сообщение

Galfimbul

avatar Galfimbul


Тайна печати дракона



[b]Год выхода:
2019
Жанр: приключения

Режиссер: Олег Степченко
В ролях: Джейсон Флеминг, Арнольд Шварценеггер, Чарльз Дэнс, Джеки Чан, Яо Синтун, Кристофер Фэйрбэнк, Рутгер Хауэр, Мартин Клебба, Юрий Колокольников, Павел Воля

О фильме: Английский путешественник Джонатан Грин получает от Петра I заказ на изготовление карт Дальнего Востока России. Ему вновь предстоит долгий путь, полный невероятных приключений, который приведет его в Китай. Картограф столкнется с массой головокружительных открытий, неожиданных встреч с диковинными существами, китайскими принцессами, мастерами смертоносных боевых искусств и самим Лун-Ван, Царем всех драконов. Что может быть опаснее, чем посмотреть в глаза Вию? Разве что встретиться с ним вновь. Что на этот раз окажется сильнее — непоколебимый скептицизм ученого или древняя черная магия, уже давно захватившая власть в Восточных землях?



Страна: Россия, Китай
Студия: China Film Co., China International Pictures, Fetisoff Illusion, Кинокомпания CTB, Русская Фильм Группа, Sparkle Roll Media
Продолжительность: 01:54:27
Перевод: Дублированный

Файл
Кодек: h.264
Качество: WEBRip-AVC
Видео: 1024x576 (16:9), 25 fps, x264 ~2163 kbps avg, 0.147 bit/pixel
Звук: 48 kHz, AC3 Dolby Digital Plus, 2 (L,R) ch, ~192.00 kbps avg | RUS
Субтитры: Русские (hardsub)
Общее
Уникальный идентификатор : 181864990355094914737627407007094473130 (0x88D1EC4EB665E1B3A3FD42AD5F9901AA)
Полное имя : E:Tajna.Pechati.Drakona.2019.WEB-DLRip(AVC).OllanDGroup.mkv
Формат : Matroska
Версия формата : Version 4 / Version 2
Размер файла : 1,88 Гбайт
Продолжительность : 1 ч. 54 м.
Общий поток : 2355 Кбит/сек
Название фильма : Тайна печати дракона (2019) #Skandar#
Дата кодирования : UTC 2019-11-04 14:20:46
Программа кодирования : mkvmerge v29.0.0 ('Like It Or Not') 64-bit
Библиотека кодирования : libebml v1.3.6 + libmatroska v1.4.9

Видео
Идентификатор : 1
Формат : AVC
Формат/Информация : Advanced Video Codec
Профиль формата : High@L4.1
Параметр CABAC формата : Да
Параметр ReFrames формата : 10 кадров
Идентификатор кодека : V_MPEG4/ISO/AVC
Продолжительность : 1 ч. 54 м.
Битрейт : 2163 Кбит/сек
Ширина : 1024 пикселя
Высота : 576 пикселей
Соотношение сторон : 16:9
Режим частоты кадров : Постоянный
Частота кадров : 25,000 кадров/сек
Цветовое пространство : YUV
Субдискретизация насыщенности : 4:2:0
Битовая глубина : 8 бит
Тип развёртки : Прогрессивная
Бит/(Пиксели*Кадры) : 0.147
Размер потока : 1,73 Гбайт (92%)
Библиотека кодирования : x264 core 146 r2538 121396c
Настройки программы : cabac=1 / ref=10 / deblock=1:-2:-3 / analyse=0x3:0x113 / me=umh / subme=11 / psy=1 / psy_rd=0.90:0.10 / mixed_ref=1 / me_range=48 / chroma_me=1 / trellis=2 / 8x8dct=1 / cqm=0 / deadzone=21,11 / fast_pskip=1 / chroma_qp_offset=-6 / threads=6 / lookahead_threads=1 / sliced_threads=0 / nr=0 / decimate=1 / interlaced=0 / bluray_compat=0 / constrained_intra=0 / bframes=11 / b_pyramid=2 / b_adapt=2 / b_bias=0 / direct=3 / weightb=1 / open_gop=0 / weightp=2 / keyint=250 / keyint_min=24 / scenecut=40 / intra_refresh=0 / rc_lookahead=40 / rc=2pass / mbtree=0 / bitrate=2163 / ratetol=1.0 / qcomp=0.60 / qpmin=0 / qpmax=69 / qpstep=4 / cplxblur=20.0 / qblur=0.5 / vbv_maxrate=50000 / vbv_bufsize=62500 / nal_hrd=none / filler=0 / ip_ratio=1.40 / pb_ratio=1.30 / aq=1:1.00
Язык : English
Default : Да
Forced : Нет

Аудио
Идентификатор : 2
Формат : AC-3
Формат/Информация : Audio Coding 3
Расширение режима : CM (complete main)
Параметр Endianness формата : Big
Идентификатор кодека : A_AC3
Продолжительность : 1 ч. 54 м.
Вид битрейта : Постоянный
Битрейт : 192 Кбит/сек
Каналы : 2 канала
Расположение каналов : Front: L R
Частота : 48,0 КГц
Частота кадров : 31,250 кадров/сек (1536 spf)
Битовая глубина : 16 бит
Метод сжатия : С потерями
Размер потока : 157 Мбайт (8%)
Заголовок : DUB
Язык : Russian
Default : Да
Forced : Нет
Релиз от:
Источник http://BlaTor.org

Трекер:  [ 04-Ноя-2019 17:40 ]

  

Скачать .torrent

Размер .torrent файла 19 KB


Размер: 1.88 GB
Хэш (hash) релиза: ea54761ca9543f8bbb00b0df4b2c0adc8e3f0b2d
Подписка на обновления:

Торренты, похожие на Тайна печати дракона скачать торрент

Форум Название Автор Размер S L Добавлен
Российские фильмы 2016-2018 (Новинки русского кино) ·%· Тайна печати дракона (2019) WEBRip от ExKinoRay | KПK | D Galfimbul 541841401517 MB 0 0 1573236614

21:10

8-Ноя-19

Российские фильмы 2016-2018 (Новинки русского кино) ·%· Тайна печати дракона (2019) WEBRip от ExKinoRay | D Galfimbul 783290368747 MB 0 0 1573146017

20:00

7-Ноя-19

Российские фильмы 2016-2018 (Новинки русского кино) ·%· Тайна печати дракона (2019) WEBRip-AVC от ExKinoRay | D Galfimbul 780720702745 MB 0 0 1572973828

20:10

5-Ноя-19

Российские фильмы 2016-2018 (Новинки русского кино) ·%· Тайна печати дракона (2019) WEB-DLRip-AVC от Files-x | D Galfimbul 21921197952.04 GB 0 0 1572947418

12:50

5-Ноя-19

Российские фильмы 2016-2018 (Новинки русского кино) ·%· Тайна печати дракона (2019) WEBRip от Scarabey | D Galfimbul 15551057921.45 GB 0 0 1572864682

13:51

4-Ноя-19

Российские фильмы 2016-2018 (Новинки русского кино) ·%· Тайна печати дракона (2019) WEBRip-AVC от ExKinoRay | D Galfimbul 15550769771.45 GB 0 0 1572835856

05:50

4-Ноя-19

Российские фильмы 2016-2018 (Новинки русского кино) ·%· Тайна печати дракона (2019) WEBRip 1080p | D Galfimbul 37439532683.49 GB 4 0 1572809419

22:30

3-Ноя-19

Еще никто не оставлял запись к записи скачать торрент Тайна печати дракона . Будь первым!

!Обратная связь