Скачать через торрент Дикая Лига Фильм бесплатно в хорошем качестве torrent

Скачивайте на UnionPeer.org фильмы через торрент без регистрации. Новинки кино в хорошем качестве через торрент. На UnionPeer.org можно скачать через торрент фильмы 2014 и 2015 годов. Самые новые фильмы.

Скачать торрент Дикая Лига бесплатно через .torrent фильм мультфильм сериал

Статистика раздачи
Размер:  4.02 GB   |    Зарегистрирован:  1 месяц 8 дней   |    .torrent скачан:  158 раз   |   
Раздают:  1  
 

Скачать Дикая Лига (2019) WEB-DL 1080p через torrent

 
загрузка...
 
Автор Сообщение

Galfimbul

avatar Galfimbul


Дикая Лига

Страна: Россия
Производство: Кинокомпания «Союз Маринс Групп», Modern Age Productions
Жанр: приключения, боевик
Год выпуска: 2019
Продолжительность: 01:50:53

Режиссеры: Андрей Богатырев, Арт Камачо
В ролях: Владимир Яглыч, Аделина Голубенко-Гизатуллина, Иван Охлобыстин, Дмитрий Назаров, Евгений Коряковский, Олеся Судзиловская, Эдриан Пол, Уильям Шокли, Станислав Тикунов, Анатолий Гущин, Иван Михайловский, Вячеслав Шихалеев, Павел Абраменков, Денис Кузнецов, Антон Колесников, Мария Дубина, Михаил Мелин, Вилен Бабичев

Описание: Основанная на реальных событиях начала XX века история парня Варлама из низших социальных слоев, которому ради того, чтобы быть с любимой, пришлось покинуть родные края и начать жить в Москве. Проявившего себя в бою стенка на стенку парня замечает англичанин, владелец футбольного клуба, который предлагает ему попробовать силы в команде. Однако команда не принимает неотесанного бурлака с Волги. Тогда собравшись с силами, Варлам вместе с настоящим патриотом и увлеченным футболом купцом Балашовым создает первую народную команду и становится лидером, изменив при этом свою жизнь и жизнь окружающих. Благодаря Варламу и его команде футбол в России становится поистине народной игрой...


Перевод: не требуется (оригинал)
Субтитры: нет
Качество: WEB-DL 1080p
Формат: МКV
Видео кодек: AVC
Аудио кодек: АС3
Видео: 1920x804 (2.40:1), 24.000 fps, MPEG-4 AVC ~4 999 kbps avg
Аудио: 48.0 kHz, AC3 Dolby Digital, 2/0 (L,R) ch, ~192 kbps

Дата премьеры (РФ): 24 октября 2019, «Кинолэнд»

General
Уникальный идентификатор : 190370550511859357735889469031185101795 (0x8F3808CCDE08EB71AFAA4CA3EABBB3E3)
Полное имя : Dikaya.liga.2019.WEB-DL.(1080p).Getty.mkv
Формат : Matroska
Версия формата : Version 4
Размер файла : 4,02 Гбайт
Продолжительность : 1 ч. 50 м.
Общий поток : 5193 Кбит/сек
Название фильма : Dikaya.liga.2019.WEB-DL.(1080p).Getty
Дата кодирования : UTC 2019-11-07 01:46:28
Программа кодирования : mkvmerge v7.8.0 ('River Man') 32bit built on Mar 27 2015 16:18:02
Библиотека кодирования : libebml v1.3.1 + libmatroska v1.4.2

Видео
Идентификатор : 1
Формат : AVC
Формат/Информация : Advanced Video Codec
Профиль формата : High@L4
Настройки формата : CABAC / 3 Ref Frames
Параметр CABAC формата : Да
Параметр RefFrames формата : 3 кадра
Идентификатор кодека : V_MPEG4/ISO/AVC
Продолжительность : 1 ч. 50 м.
Битрейт : 4999 Кбит/сек
Ширина : 1920 пикселей
Высота : 804 пикселя
Соотношение сторон : 2,40:1
Режим частоты кадров : Постоянный
Частота кадров : 24,000 кадра/сек
Цветовое пространство : YUV
Субдискретизация насыщенности : 4:2:0
Битовая глубина : 8 бит
Тип развёртки : Прогрессивная
Бит/(Пиксели*Кадры) : 0.135
Размер потока : 3,87 Гбайт (96%)
Default : Да
Forced : Нет
Цветовой диапазон : Limited
Основные цвета : BT.709
Характеристики трансфера : BT.709
Коэффициенты матрицы : BT.709

Аудио
Идентификатор : 2
Формат : AC-3
Формат/Информация : Audio Coding 3
Коммерческое название : Dolby Digital
Идентификатор кодека : A_AC3
Продолжительность : 1 ч. 50 м.
Вид битрейта : Постоянный
Битрейт : 192 Кбит/сек
Каналы : 2 канала
ChannelLayout : L R
Частота : 48,0 КГц
Частота кадров : 31,250 кадров/сек (1536 SPF)
Битовая глубина : 16 бит
Метод сжатия : С потерями
Размер потока : 152 Мбайт (4%)
Default : Да
Forced : Нет
Источник http://BlaTor.org

Трекер:  [ 07-Ноя-2019 08:20 ]

  

Скачать .torrent

Размер .torrent файла 20 KB


Размер: 4.02 GB
Хэш (hash) релиза: bcc7efb339413c5fa1a3ee8721fb31ea18dcdb96
Подписка на обновления:

Еще никто не оставлял запись к записи скачать торрент Дикая Лига . Будь первым!

!Обратная связь