Скачать через торрент Король Лев The Lion King Фильм бесплатно в хорошем качестве torrent

Скачивайте на UnionPeer.org фильмы через торрент без регистрации. Новинки кино в хорошем качестве через торрент. На UnionPeer.org можно скачать через торрент фильмы 2014 и 2015 годов. Самые новые фильмы.

Скачать торрент Король Лев The Lion King бесплатно через .torrent фильм мультфильм сериал

Статистика раздачи
Размер:  13.23 GB   |    Зарегистрирован:  9 дней   |    .torrent скачан:  12 раз   |   
Раздают:  1  
 

Скачать Король Лев / The Lion King (2019) BDRip 1080p от селезень | 3D-Video | HSBS | iTunes через torrent

 
загрузка...
 
Автор Сообщение

Galfimbul

avatar Galfimbul


Король Лев /The Lion King

Год выхода: 2019
Жанр: Мультфильм, мюзикл, драма, приключения, семейный
Режиссер: Джон Фавро
В ролях: Джеймс Эрл Джонс, Дональд Гловер, Чиветел Эджиофор, Джон Оливер, Джон Кани, Элфри Вудард, Джейдон Маккрэри, Шахади Райт Джозеф, Пенни Джонсон, Кигэн-Майкл Ки



О фильме: Действие фильма разворачивается в африканской саванне и повествует о молодом льве по имени Симба, который потерял своего отца Муфасу из-за своего злобного дяди Шрама и был изгнан из прайда в дальние края пустыни. Годы спустя он возвращается, чтобы вернуть себе трон.

Страна: США
Студия: Walt Disney Pictures, Fairview Entertainment
Продолжительность: 01:58:14
Перевод: Дублированный | iTunes

Качество: BDRip 1080p | 3D-(HSBS)
Видео: MPEG-4 AVC, 1920x1080, 15000 Kbit/s, 23.976 fps
Аудио #01: 48 kHz, AC3, 5.1, 384 Kbps | iTunes | RUS |
Аудио #02: 48 kHz, AC3, 7.1, 640 Kbps | Оригинал | ENG |
Субтитры: Русские (Full, SDH), английские



Формат 3D: Anamorph SideBySide - Горизонтальная анаморфная стереопара.
Порядок ракурсов: левый ракурс первый
General
Unique ID : 286648546117456730493957227276308276564 (0xD7A6807920C8A942F81755425D7F6554)
Complete name : D:Video111The.Lion.King.3D.HSBS.BDRip.1080p.seleZen.mkv
Format : Matroska
Format version : Version 4
File size : 13.2 GiB
Duration : 1 h 58 min
Overall bit rate : 16.0 Mb/s
Movie name : The Lion King 2019 from селезень
Encoded date : UTC 2019-11-07 21:40:47
Writing application : mkvmerge v22.0.0 ('At The End Of The World') 64-bit
Writing library : libebml v1.3.5 + libmatroska v1.4.8

Video
ID : 1
Format : AVC
Format/Info : Advanced Video Codec
Format profile : High@L4.1
Format settings : CABAC / 4 Ref Frames
Format settings, CABAC : Yes
Format settings, Reference : 4 frames
Codec ID : V_MPEG4/ISO/AVC
Duration : 1 h 58 min
Bit rate : 15.0 Mb/s
Width : 1 920 pixels
Height : 1 080 pixels
Display aspect ratio : 16:9
Frame rate mode : Constant
Frame rate : 23.976 (24000/1001) FPS
Color space : YUV
Chroma subsampling : 4:2:0
Bit depth : 8 bits
Scan type : Progressive
Bits/(Pixel*Frame) : 0.302
Stream size : 12.4 GiB (94%)
Title : Encoded by seleZen
Writing library : x264 core 148 r2705kMod 3f5ed56
Encoding settings : cabac=1 / ref=4 / deblock=1:-2:-2 / analyse=0x3:0x113 / me=umh / subme=11 / psy=1 / fade_compensate=0.00 / psy_rd=1.00:0.00 / mixed_ref=1 / me_range=48 / chroma_me=1 / trellis=2 / 8x8dct=1 / cqm=0 / deadzone=21,11 / fast_pskip=0 / chroma_qp_offset=-2 / threads=24 / lookahead_threads=6 / sliced_threads=0 / nr=0 / decimate=0 / interlaced=0 / bluray_compat=0 / constrained_intra=0 / fgo=0 / bframes=10 / b_pyramid=2 / b_adapt=2 / b_bias=0 / direct=3 / weightb=1 / open_gop=0 / weightp=2 / keyint=240 / keyint_min=23 / scenecut=40 / intra_refresh=0 / rc_lookahead=50 / rc=2pass / mbtree=0 / bitrate=15000 / ratetol=1.0 / qcomp=0.60 / qpmin=0 / qpmax=51 / qpstep=4 / cplxblur=20.0 / qblur=0.5 / vbv_maxrate=50000 / vbv_bufsize=62500 / nal_hrd=none / filler=0 / ip_ratio=1.40 / pb_ratio=1.30 / aq=3:0.80
Language : English
Default : Yes
Forced : No

Audio #1
ID : 2
Format : AC-3
Format/Info : Audio Coding 3
Commercial name : Dolby Digital
Codec ID : A_AC3
Duration : 1 h 58 min
Bit rate mode : Constant
Bit rate : 384 kb/s
Channel(s) : 6 channels
Channel layout : L R C LFE Ls Rs
Sampling rate : 48.0 kHz
Frame rate : 31.250 FPS (1536 SPF)
Bit depth : 16 bits
Compression mode : Lossy
Stream size : 325 MiB (2%)
Title : iTunes
Language : Russian
Service kind : Complete Main
Default : Yes
Forced : Yes

Audio #2
ID : 3
Format : AC-3
Format/Info : Audio Coding 3
Commercial name : Dolby Digital
Codec ID : A_AC3
Duration : 1 h 58 min
Bit rate mode : Constant
Bit rate : 640 kb/s
Channel(s) : 6 channels
Channel layout : L R C LFE Ls Rs
Sampling rate : 48.0 kHz
Frame rate : 31.250 FPS (1536 SPF)
Bit depth : 16 bits
Compression mode : Lossy
Stream size : 541 MiB (4%)
Title : Original
Language : English
Service kind : Complete Main
Default : No
Forced : No

Text #1
ID : 4
Format : UTF-8
Codec ID : S_TEXT/UTF8
Codec ID/Info : UTF-8 Plain Text
Duration : 1 h 55 min
Bit rate : 68 b/s
Count of elements : 1371
Stream size : 58.1 KiB (0%)
Title : Full
Language : Russian
Default : No
Forced : No

Text #2
ID : 5
Format : UTF-8
Codec ID : S_TEXT/UTF8
Codec ID/Info : UTF-8 Plain Text
Duration : 1 h 47 min
Bit rate : 89 b/s
Count of elements : 1642
Stream size : 70.4 KiB (0%)
Title : SDH
Language : Russian
Default : No
Forced : No

Text #3
ID : 6
Format : UTF-8
Codec ID : S_TEXT/UTF8
Codec ID/Info : UTF-8 Plain Text
Duration : 1 h 46 min
Bit rate : 50 b/s
Count of elements : 1369
Stream size : 39.1 KiB (0%)
Title : Full
Language : English
Default : No
Forced : No

Menu
00:00:00.000 : en:"Circle Of Life/Nants' Ingonyama"
00:04:50.499 : en:"Life's Not Fair"
00:10:51.067 : en:"Everything The Light Touches"
00:17:47.692 : en:"I Just Can't Wait To Be King"
00:23:53.015 : en:Elephant Graveyard
00:30:00.132 : en:Under The Stars
00:33:05.066 : en:"Be Prepared"
00:37:09.310 : en:Stampede
00:43:42.912 : en:Scar Takes Over
00:50:47.336 : en:Timon And Pumbaa
00:55:02.716 : en:"Hakuna Matata"
00:59:48.460 : en:Scar's Kingdom
01:06:27.233 : en:"Line Of Indifference"
01:14:32.093 : en:"The Lion Sleeps Tonight"
01:18:26.410 : en:"Can You Feel The Love Tonight"
01:23:07.900 : en:"He Lives In You"
01:28:04.654 : en:"Spirit"
01:33:10.877 : en:Simba Confronts Scar
01:37:13.745 : en:Battle For Pride Rock
01:44:39.190 : en:The Rightful King
01:47:47.336 : en:End Credits/"Never Too Late"
Источник http://BlaTor.org

Трекер:  [ 08-Ноя-2019 01:10 ]

  

Скачать .torrent

Размер .torrent файла 17 KB


Размер: 13.23 GB
Хэш (hash) релиза: d22f509c9b402af9d83fbc0d70234c42574f8ab7
Подписка на обновления:

Торренты, похожие на Король Лев The Lion King скачать торрент

Форум Название Автор Размер S L Добавлен
Мультфильмы 2016-2018 (Новинки мультфильмов) ·%· Король Лев / The Lion King (2019) BDRip 1080p от Ash61 | 3D-Video | halfOU | iTunes Galfimbul 1216763163411.33 GB 0 0 1573245015

23:30

8-Ноя-19

Мультфильмы 2016-2018 (Новинки мультфильмов) ·%· Король Лев / The Lion King (2019) BDRemux 1080p от селезень | 3D-Video | iTunes Galfimbul 4211775897639.23 GB 0 0 1573117216

12:00

7-Ноя-19

Мультфильмы 2016-2018 (Новинки мультфильмов) ·%· Король Лев / The Lion King (2019) BDRip-AVC от ExKinoRay | iTunes Galfimbul 782416514746 MB 0 0 1571675425

19:30

21-Окт-19

Мультфильмы 2016-2018 (Новинки мультфильмов) ·%· Король Лев / The Lion King (2019) HDRip от Scarabey | iTunes Galfimbul 781187072745 MB 0 0 1571332843

20:20

17-Окт-19

Мультфильмы 2016-2018 (Новинки мультфильмов) ·%· Король Лев / The Lion King (2019) BDRip-HEVC 1080p от HEVC-CLUB | iTunes Galfimbul 80900955347.53 GB 3 0 1571167826

22:30

15-Окт-19

Мультфильмы 2016-2018 (Новинки мультфильмов) ·%· Король Лев / The Lion King (2019) HDRip от Generalfilm | КПК | iTunes Galfimbul 471701276450 MB 0 0 1570956616

11:50

13-Окт-19

Мультфильмы 2016-2018 (Новинки мультфильмов) ·%· Король Лев / The Lion King (2019) HDRip от ExKinoRay | iTunes Galfimbul 786634752750 MB 0 0 1570948211

09:30

13-Окт-19

Мультфильмы 2016-2018 (Новинки мультфильмов) ·%· Король Лев / The Lion King (2019) HDRip от MegaPeer | iTunes Galfimbul 833091442794 MB 0 0 1570947010

09:10

13-Окт-19

Зарубежные фильмы 2016-2018 (Новинки зарубежного кино) ·%· Король Лев / The Lion King (2019) BDRip 1080p | iTunes Galfimbul 1770686151216.49 GB 2 0 1570935007

05:50

13-Окт-19

Мультфильмы 2016-2018 (Новинки мультфильмов) ·%· Король Лев / The Lion King (2019) BDRip от Twister & ExKinoRay | iTunes Galfimbul 22864814142.13 GB 2 0 1570913455

23:50

12-Окт-19

Мультфильмы 2016-2018 (Новинки мультфильмов) ·%· Король Лев / The Lion King (2019) HDRip от Scarabey | iTunes Galfimbul 14939811841.39 GB 0 0 1570902026

20:40

12-Окт-19

Мультфильмы 2016-2018 (Новинки мультфильмов) ·%· Король Лев / The Lion King (2019) BDRip-AVC от OlLanDGroup | iTunes Galfimbul 26362103232.46 GB 0 0 1570898464

19:41

12-Окт-19

Мультфильмы 2016-2018 (Новинки мультфильмов) ·%· Король Лев / The Lion King (2019) BDRip от Twister & ExKinoRay | iTunes Galfimbul 15103896581.41 GB 0 0 1570896032

19:00

12-Окт-19

Мультфильмы 2016-2018 (Новинки мультфильмов) ·%· Король Лев / The Lion King (2019) BDRip 720p от ExKinoRay | iTunes Galfimbul 48278863344.5 GB 0 0 1570890018

17:20

12-Окт-19

Мультфильмы 2016-2018 (Новинки мультфильмов) ·%· Король Лев / The Lion King (2019) BDRip-HEVC 1080p от селезень | iTunes Galfimbul 72968559986.8 GB 0 0 1570884011

15:40

12-Окт-19

Мультфильмы 2016-2018 (Новинки мультфильмов) ·%· Король Лев / The Lion King (2019) BDRip 720p от селезень | iTunes Galfimbul 66749031796.22 GB 0 0 1570878065

14:01

12-Окт-19

Мультфильмы 2016-2018 (Новинки мультфильмов) ·%· Король Лев / The Lion King (2019) BDRip от MegaPeer | iTunes Galfimbul 15129559041.41 GB 0 0 1570876829

13:40

12-Окт-19

Мультфильмы 2016-2018 (Новинки мультфильмов) ·%· Король Лев / The Lion King (2019) BDRip от MegaPeer | iTunes Galfimbul 22862213122.13 GB 0 0 1570876824

13:40

12-Окт-19

Мультфильмы 2016-2018 (Новинки мультфильмов) ·%· Король Лев / The Lion King (2019) BDRemux 1080p от селезень | iTunes Galfimbul 2930694281627.29 GB 2 0 1570839621

03:20

12-Окт-19

Еще никто не оставлял запись к записи скачать торрент Король Лев The Lion King . Будь первым!

!Обратная связь