Скачать через торрент Короли интриги El Cuento de las Comadrejas Фильм бесплатно в хорошем качестве torrent

Скачивайте на UnionPeer.org фильмы через торрент без регистрации. Новинки кино в хорошем качестве через торрент. На UnionPeer.org можно скачать через торрент фильмы 2014 и 2015 годов. Самые новые фильмы.

Скачать торрент Короли интриги El Cuento de las Comadrejas бесплатно через .torrent фильм мультфильм сериал

Статистика раздачи
Размер:  3.85 GB   |    Зарегистрирован:  9 дней   |    .torrent скачан:  41 раз   |   
Раздают:  1  
 

Скачать Короли интриги / El Cuento de las Comadrejas (2019) WEB-DL 720p | iTunes через torrent

 
загрузка...
 
Автор Сообщение

Galfimbul

avatar Galfimbul


Название: Короли интриги
Оригинальное название: El Cuento de las Comadrejas
Год выпуска: 2019
Жанр: Комедия, детектив
Режиссер: Хуан Хосе Кампанелья
В ролях: Грасиэла Борхес, Оскар Мартинес, Луис Брандони, Маркос Мандсток, Клара Лаго, Николас Франсельа, Лус Киприота, Мару Запата, Anwar Yoma, Мануэль Мартинес Собрадо

О фильме:
Мара Ортис, забытая всеми кинозвезда «золотой эпохи» ведет затворнический образ жизни в старинном особняке в пригороде Буэнос-Айреса. Свой кров актриса делит с экстравагантной компанией бывших свидетелей ее увядшей славы - влюбленным в нее супругом-актером эпизода, язвительным сценаристом и режиссером-циником. Отношения этой четверки далеки от совершенства: они балансируют между обожанием и неприязнью. Однажды в поместье появляются нежданные гости - молодая пара, положившая глаз на звездное поместье. Они притворяются поклонниками Мары и убеждают актрису продать дом. Однако на пути «акул бизнеса» встают мастера дьявольских интриг. Смертельный поединок начинается...



Страна: Аргентина, Испания
Студия: 100 Bares, Instituto Nacional de Cine y Artes Audiovisuales (INCAA), Instituto de la Cinematograf?a y de las Artes Audiovisuales
Продолжительность: 02:08:51
Перевод: Профессиональный (многоголосый, закадровый) | iTunes
Субтитры: Нет

Файл
Формат: MKV
Качество: WEB-DL 720p [TeamHD]
Видео: AVC/H.264, 1280x536, 3892 Kbps, 24.000 fps
Аудио: AC-3, 6 ch, 384 Kbps, 48.0 KHz
Video
ID : 1
Format : AVC
Format/Info : Advanced Video Codec
Format profile : Main@L3.1
Format settings : 2 Ref Frames
Format settings, CABAC : No
Format settings, ReFrames : 2 frames
Codec ID : V_MPEG4/ISO/AVC
Duration : 2h 8mn
Bit rate : 3 892 Kbps
Width : 1 280 pixels
Height : 536 pixels
Display aspect ratio : 2.40:1
Frame rate mode : Constant
Frame rate : 24.000 fps
Color space : YUV
Chroma subsampling : 4:2:0
Bit depth : 8 bits
Scan type : Progressive
Bits/(Pixel*Frame) : 0.236
Stream size : 3.50 GiB (91%)
Language : Spanish
Default : Yes
Forced : No
Color range : Limited
Color primaries : BT.709
Transfer characteristics : BT.709
Matrix coefficients : BT.709

Audio
ID : 2
Format : AC-3
Format/Info : Audio Coding 3
Commercial name : Dolby Digital
Codec ID : A_AC3
Duration : 2h 8mn
Bit rate mode : Constant
Bit rate : 384 Kbps
Channel(s) : 6 channels
Channel layout : L R C LFE Ls Rs
Sampling rate : 48.0 KHz
Frame rate : 31.250 fps (1536 SPF)
Compression mode : Lossy
Stream size : 354 MiB (9%)
Title : Russian MVO iTunes
Language : Russian
Service kind : Complete Main
Default : Yes
Forced : No

Menu
00:00:00.000 : en:Глава 1
00:06:35.500 : en:Глава 2
00:16:03.125 : en:Глава 3
00:24:44.500 : en:Глава 4
00:33:50.208 : en:Глава 5
00:42:01.499 : en:Глава 6
00:50:57.915 : en:Глава 7
00:57:23.748 : en:Глава 8
01:05:09.498 : en:Глава 9
01:13:51.873 : en:Глава 10
01:22:34.998 : en:Глава 11
01:31:08.831 : en:Глава 12
01:39:10.164 : en:Глава 13
01:47:56.830 : en:Глава 14
01:55:46.746 : en:Глава 15
Источник http://BlaTor.org

Трекер:  [ 08-Ноя-2019 11:10 ]

  

Скачать .torrent

Размер .torrent файла 39 KB


Размер: 3.85 GB
Хэш (hash) релиза: 09dbcbe22ccedc76fcd29bfaab30fdffb7235019
Подписка на обновления:

Еще никто не оставлял запись к записи скачать торрент Короли интриги El Cuento de las Comadrejas . Будь первым!

!Обратная связь