Скачать через торрент Игра Ганнибала Nomis Фильм бесплатно в хорошем качестве torrent

Скачивайте на UnionPeer.org фильмы через торрент без регистрации. Новинки кино в хорошем качестве через торрент. На UnionPeer.org можно скачать через торрент фильмы 2014 и 2015 годов. Самые новые фильмы.

Скачать торрент Игра Ганнибала Nomis бесплатно через .torrent фильм мультфильм сериал

Статистика раздачи
Размер:  743 MB   |    Зарегистрирован:  8 дней   |    .torrent скачан:  45 раз   |   
Раздают:  2  
 

Скачать Игра Ганнибала / Nomis / Night Hunter (2018) BDRip-AVC от OlLanDGroup | iTunes через torrent

 
загрузка...
 
Автор Сообщение

Galfimbul

avatar Galfimbul


Информация о фильме
Название: Игра Ганнибала
Оригинальное название: Nomis (Night Hunter)
Год выпуска: 2018
Жанр: Боевик, триллер
Режиссер: Дэвид Рэймонд
В ролях: Бен Кингсли, Стэнли Туччи, Александра Даддарио, Генри Кавилл, Минка Келли, Натан Филлион, Сара Томпсон, Элиана Джонс, Брендан Флетчер, Эмма Тремблей

О фильме:
Бывший судья, разочаровавшийся в системе правосудия, вместе с девушкой, которая работает приманкой для педофилов, ловит и сам наказывает извращенцев. Однажды помощницу мстителя похищают, и с помощью системы отслеживания местоположения он помогает полиции поймать опасного убийцу, на счету которого множество жертв. Тот кажется парнем недалёким, но профайлер уверена — в маньяке уживается несколько личностей.



Страна: Канада, США
Студия: Arcola Entertainment, Arise Pictures, Buffalo Gal Pictures
Продолжительность: 01:38:58
Перевод: Дублированный | iTunes

Файл
Формат: MKV
Качество: BDRip-AVC
Видео: 720x302 (2.40:1), 24 fps, x264 ~987 kbps avg, 0.189 bit/pixel
Аудио: 48 kHz, HE-AAC, 2 ch, ~64 kbps avg | RUS (iTunes)
Субтитры: Русские (Forced), английские
General
Unique ID : 220971715243775575994119065089665379960 (0xA63D9AB50C0F7BE9B9175131D14FAE78)
Complete name : D:OlLanDGroupiTunesNomis.2018.BDRip(AVC).745Mb.OlLanDGroup.mkv
Format : Matroska
Format version : Version 4
File size : 743 MiB
Duration : 1 h 38 min
Overall bit rate : 1 050 kb/s
Movie name : Nomis.2018.BDRip(AVC).745Mb.OlLanDGroup#Skandar#
Encoded date : UTC 2019-11-08 10:51:32
Writing application : mkvmerge v31.0.0 ('Dolores In A Shoestand') 64-bit
Writing library : libebml v1.3.6 + libmatroska v1.4.9

Video
ID : 1
Format : AVC
Format/Info : Advanced Video Codec
Format profile : High@L4.1
Format settings : CABAC / 10 Ref Frames
Format settings, CABAC : Yes
Format settings, ReFrames : 10 frames
Codec ID : V_MPEG4/ISO/AVC
Duration : 1 h 38 min
Bit rate : 987 kb/s
Width : 720 pixels
Height : 302 pixels
Display aspect ratio : 2.40:1
Frame rate mode : Constant
Frame rate : 23.976 (24000/1001) FPS
Color space : YUV
Chroma subsampling : 4:2:0
Bit depth : 8 bits
Scan type : Progressive
Bits/(Pixel*Frame) : 0.189
Stream size : 697 MiB (94%)
Title : Nomis.2018.BDRip(AVC).745Mb.OlLanDGroup#Skandar#
Writing library : x264 core 146 r2538 121396c
Encoding settings : cabac=1 / ref=10 / deblock=1:-3:-3 / analyse=0x3:0x133 / me=umh / subme=11 / psy=1 / psy_rd=0.97:0.05 / mixed_ref=1 / me_range=48 / chroma_me=1 / trellis=2 / 8x8dct=1 / cqm=0 / deadzone=21,11 / fast_pskip=0 / chroma_qp_offset=-3 / threads=6 / lookahead_threads=1 / sliced_threads=0 / nr=0 / decimate=0 / interlaced=0 / bluray_compat=0 / constrained_intra=0 / bframes=11 / b_pyramid=2 / b_adapt=2 / b_bias=0 / direct=3 / weightb=1 / open_gop=0 / weightp=2 / keyint=240 / keyint_min=23 / scenecut=40 / intra_refresh=0 / rc_lookahead=40 / rc=2pass / mbtree=0 / bitrate=987 / ratetol=1.0 / qcomp=0.60 / qpmin=0 / qpmax=69 / qpstep=4 / cplxblur=20.0 / qblur=0.5 / vbv_maxrate=50000 / vbv_bufsize=62500 / nal_hrd=none / filler=0 / ip_ratio=1.40 / pb_ratio=1.30 / aq=1:1.00
Language : Russian
Default : Yes
Forced : No

Audio
ID : 2
Format : AAC LC SBR
Format/Info : Advanced Audio Codec Low Complexity with Spectral Band Replication
Commercial name : HE-AAC
Format settings : Explicit
Codec ID : A_AAC-2
Duration : 1 h 38 min
Bit rate : 64.0 kb/s
Channel(s) : 2 channels
Channel layout : L R
Sampling rate : 48.0 kHz
Frame rate : 23.438 FPS (2048 SPF)
Compression mode : Lossy
Delay relative to video : 31 ms
Stream size : 45.3 MiB (6%)
Title : Dub (iTunes)
Language : Russian
Default : Yes
Forced : No

Text #1
ID : 3
Format : UTF-8
Codec ID : S_TEXT/UTF8
Codec ID/Info : UTF-8 Plain Text
Duration : 1 h 1 min
Bit rate : 1 b/s
Count of elements : 12
Stream size : 490 Bytes (0%)
Title : Forced
Language : Russian
Default : Yes
Forced : Yes

Text #2
ID : 4
Format : UTF-8
Codec ID : S_TEXT/UTF8
Codec ID/Info : UTF-8 Plain Text
Duration : 1 h 32 min
Bit rate : 43 b/s
Count of elements : 1100
Stream size : 29.4 KiB (0%)
Language : English
Default : No
Forced : No

Menu
00:00:00.000 : :Chapter 01
00:13:20.299 : :Chapter 02
00:25:10.884 : :Chapter 03
00:40:01.107 : :Chapter 04
00:53:13.315 : :Chapter 05
01:08:14.507 : :Chapter 06
01:23:00.142 : :Chapter 07
01:33:35.652 : :Chapter 08
Релиз от:
Источник http://BlaTor.org

Трекер:  [ 08-Ноя-2019 15:10 ]

  

Скачать .torrent

Размер .torrent файла 15 KB


Размер: 743 MB
Хэш (hash) релиза: ba0361e91c2848b120ce70f9f8ca22d7908578c9
Подписка на обновления:

Торренты, похожие на Игра Ганнибала Nomis скачать торрент

Форум Название Автор Размер S L Добавлен
Зарубежные фильмы 2016-2018 (Новинки зарубежного кино) ·%· Игра Ганнибала / Nomis / Night Hunter (2018) BDRip от Twister & ExKinoRay | iTunes Galfimbul 15202002621.42 GB 0 0 1573680021

00:20

14-Ноя-19

Зарубежные фильмы 2016-2018 (Новинки зарубежного кино) ·%· Игра Ганнибала / Nomis / Night Hunter (2018) HDRip от Portablius | iTunes Galfimbul 781692928745 MB 2 0 1573375810

11:50

10-Ноя-19

Зарубежные фильмы 2016-2018 (Новинки зарубежного кино) ·%· Игра Ганнибала / Nomis / Night Hunter (2018) BDRemux 1080p от селезень | D, P | iTunes Galfimbul 2272711093321.17 GB 0 0 1573075248

00:20

7-Ноя-19

Зарубежные фильмы 2016-2018 (Новинки зарубежного кино) ·%· Игра Ганнибала / Nomis / Night Hunter (2018) BDRip 1080p от селезень | D, P | iTunes Galfimbul 87700948258.17 GB 0 0 1573074049

00:00

7-Ноя-19

Зарубежные фильмы 2016-2018 (Новинки зарубежного кино) ·%· Игра Ганнибала / Nomis / Night Hunter (2018) BDRip 720p от селезень | D, P | iTunes Galfimbul 43408895424.04 GB 3 0 1573074025

00:00

7-Ноя-19

Зарубежные фильмы 2016-2018 (Новинки зарубежного кино) ·%· Игра Ганнибала / Nomis / Night Hunter (2018) BDRip от MegaPeer | HDRezka Studio Galfimbul 15721950311.46 GB 2 0 1568236278

00:11

12-Сен-19

karmen1973

Не ожидал от фильма ни чего интересного,но Игра Ганнибала понравился. :up:

Хотите добавить комментарий к записи скачать торрент Игра Ганнибала Nomis

!Обратная связь