Скачать через торрент Зелёные яйца с ветчиной Green Eggs and Ham Фильм бесплатно в хорошем качестве torrent

Скачивайте на UnionPeer.org фильмы через торрент без регистрации. Новинки кино в хорошем качестве через торрент. На UnionPeer.org можно скачать через торрент фильмы 2014 и 2015 годов. Самые новые фильмы.

Скачать торрент Зелёные яйца с ветчиной Green Eggs and Ham бесплатно через .torrent фильм мультфильм сериал

Статистика раздачи
Размер:  21.05 GB   |    Зарегистрирован:  8 дней   |    .torrent скачан:  19 раз   |   
Раздают:  1   Качают:  1  
 

Скачать Зелёные яйца с ветчиной / Green Eggs and Ham [S01] (2019) WEB-DL 1080p | Пифагор через torrent

 
загрузка...
 
Автор Сообщение

Galfimbul

avatar Galfimbul


Год выпуска: 2019
Производство: США, Великобритания, Канада, Warner Bros. Animation
Жанр: мультфильм, комедия, приключения, семейный
Продолжительность: ~00:28:00 серия

Перевод: Профессиональный (дублированный) | Пифагор

Режиссёр: Джаред Штерн
Роли озвучивали: Джиллиан Белл, Адам Дивайн, Давид Диггс, Майкл Дуглас, Илана Глейзер, Эдди Иззард, Дайан Китон, Кигэн-Майкл Ки, Трэйси Морган, Джон Туртурро

Описание: По книге Доктора Сьюза. Изобретатель Guy-Am-I и его приятель Sam-I-Am путешествуют по стране и спасают вымирающих животных.



Качество: WEB-DL 1080p
Контейнер: MKV
Видео: AVC, 1920x1080 (16:9), 24 fps, ~7131 kbps
Аудио №1: E-AC3, 48 kHz, 6 ch, 640 kbps
Аудио №2: E-AC3, 48 kHz, 6 ch, 640 kbps
Субтитры: Русские (Forced, Full), английские
Реклама: Отсутствует
 
General
Unique ID : 150609209512635529186141366660713802614 (0x714E47559CB523C46FB0DE49DD35EB76)
Complete name : Green.Eggs.and.Ham.S01.1080p.NF.WEB-DL.DDP5.1.H.264-EniaHDGreen.Eggs.and.Ham.S01E01.1080p.NF.WEB-DL.DDP5.1.H.264-EniaHD.mkv
Format : Matroska
Format version : Version 4
File size : 1.66 GiB
Duration : 28 min 17 s
Overall bit rate mode : Variable
Overall bit rate : 8 413 kb/s
Movie name : Green Eggs and Ham 01x01 (Here) - EniaHD
Encoded date : UTC 2019-11-08 11:34:44
Writing application : mkvmerge v39.0.0 ('In The Waiting Line') 64-bit
Writing library : libebml v1.3.9 + libmatroska v1.5.2

Video
ID : 1
Format : AVC
Format/Info : Advanced Video Codec
Format profile : Main@L4
Format settings : CABAC / 3 Ref Frames
Format settings, CABAC : Yes
Format settings, Reference fra : 3 frames
Codec ID : V_MPEG4/ISO/AVC
Duration : 28 min 17 s
Bit rate mode : Variable
Bit rate : 7 131 kb/s
Nominal bit rate : 7 500 kb/s
Maximum bit rate : 11.2 Mb/s
Width : 1 920 pixels
Height : 1 080 pixels
Display aspect ratio : 16:9
Frame rate mode : Constant
Frame rate : 24.000 FPS
Color space : YUV
Chroma subsampling : 4:2:0
Bit depth : 8 bits
Scan type : Progressive
Bits/(Pixel*Frame) : 0.143
Stream size : 1.41 GiB (85%)
Writing library : x264 core 148 r2715 7e75228
Encoding settings : cabac=1 / ref=3 / deblock=1:0:0 / analyse=0x1:0x111 / me=umh / subme=10 / psy=1 / psy_rd=1.00:0.00 / mixed_ref=1 / me_range=24 / chroma_me=1 / trellis=2 / 8x8dct=0 / cqm=0 / deadzone=21,11 / fast_pskip=1 / chroma_qp_offset=-2 / threads=8 / lookahead_threads=1 / sliced_threads=0 / nr=0 / decimate=1 / interlaced=0 / bluray_compat=0 / stitchable=1 / constrained_intra=0 / bframes=2 / b_pyramid=0 / b_adapt=2 / b_bias=0 / direct=3 / weightb=1 / open_gop=0 / weightp=2 / keyint=48 / keyint_min=25 / scenecut=0 / intra_refresh=0 / rc_lookahead=48 / rc=2pass / mbtree=1 / bitrate=7500 / ratetol=1.0 / qcomp=0.50 / qpmin=6 / qpmax=51 / qpstep=4 / cplxblur=20.0 / qblur=0.5 / vbv_maxrate=11250 / vbv_bufsize=15000 / nal_hrd=vbr / filler=0 / ip_ratio=1.40 / aq=1:1.00
Default : Yes
Forced : No

Audio #1
ID : 2
Format : E-AC-3
Format/Info : Enhanced AC-3
Commercial name : Dolby Digital Plus
Codec ID : A_EAC3
Duration : 28 min 17 s
Bit rate mode : Constant
Bit rate : 640 kb/s
Channel(s) : 6 channels
Channel layout : L R C LFE Ls Rs
Sampling rate : 48.0 kHz
Frame rate : 31.250 FPS (1536 SPF)
Compression mode : Lossy
Stream size : 129 MiB (8%)
Language : Russian
Service kind : Complete Main
Default : Yes
Forced : No

Audio #2
ID : 3
Format : E-AC-3
Format/Info : Enhanced AC-3
Commercial name : Dolby Digital Plus
Codec ID : A_EAC3
Duration : 28 min 17 s
Bit rate mode : Constant
Bit rate : 640 kb/s
Channel(s) : 6 channels
Channel layout : L R C LFE Ls Rs
Sampling rate : 48.0 kHz
Frame rate : 31.250 FPS (1536 SPF)
Compression mode : Lossy
Stream size : 129 MiB (8%)
Language : English
Service kind : Complete Main
Default : No
Forced : No

Text #1
ID : 4
Format : UTF-8
Codec ID : S_TEXT/UTF8
Codec ID/Info : UTF-8 Plain Text
Duration : 26 min 35 s
Bit rate : 7 b/s
Count of elements : 34
Stream size : 1.38 KiB (0%)
Title : Forced
Language : Russian
Default : Yes
Forced : Yes

Text #2
ID : 5
Format : UTF-8
Codec ID : S_TEXT/UTF8
Codec ID/Info : UTF-8 Plain Text
Duration : 26 min 35 s
Bit rate : 115 b/s
Count of elements : 442
Stream size : 22.4 KiB (0%)
Title : Full
Language : Russian
Default : No
Forced : No

Text #3
ID : 6
Format : UTF-8
Codec ID : S_TEXT/UTF8
Codec ID/Info : UTF-8 Plain Text
Duration : 26 min 24 s
Bit rate : 90 b/s
Count of elements : 619
Stream size : 17.4 KiB (0%)
Title : SDH
Language : English
Default : No
Forced : No
Источник http://BlaTor.org

Трекер:  [ 08-Ноя-2019 17:10 ]

  

Скачать .torrent

Размер .torrent файла 212 KB


Размер: 21.05 GB
Хэш (hash) релиза: 2bea2d8369a988dd7b16664aa29c3fa4e0f08d94
Подписка на обновления:

Еще никто не оставлял запись к записи скачать торрент Зелёные яйца с ветчиной Green Eggs and Ham . Будь первым!

!Обратная связь