Скачать через торрент И скоро рассвет And Suddenly the Dawn Фильм бесплатно в хорошем качестве torrent

Скачивайте на UnionPeer.org фильмы через торрент без регистрации. Новинки кино в хорошем качестве через торрент. На UnionPeer.org можно скачать через торрент фильмы 2014 и 2015 годов. Самые новые фильмы.

Скачать торрент И скоро рассвет And Suddenly the Dawn бесплатно через .torrent фильм мультфильм сериал

Статистика раздачи
Размер:  2.71 GB   |    Зарегистрирован:  8 дней   |    .torrent скачан:  15 раз   |   
Раздают:  3  
 

Скачать И скоро рассвет / And Suddenly the Dawn / ...Y de Pronto el Amanecer (2017) HDRip 720p | L1 через torrent

 
загрузка...
 
Автор Сообщение

Galfimbul

avatar Galfimbul


И скоро рассвет /And Suddenly the Dawn / ...Y de Pronto el Amanecer

Год выхода: 2017
Жанр: драма
Режиссер: Сильвио Кайосси / Silvio Caiozzi
В ролях: Хулио Юнг, Серхио Эрнандес, Магдалена Мюллер, Арнальдо Берриос, Маурисио Риверос, Пабло Шварц, Анита Ривз, Педро Викунья, Нельсон Бродт, Дарко Александар

О фильме:
Спустя 45 лет писатель возвращается в свой родной город в Патагонии, откуда ему пришлось бежать спасая жизнь во время режима Пиночета.

Фильм выдвинут Чили на премию «Оскар» за лучший фильм на иностранном языке в 2019г.

Страна: Чили
Продолжительность: 03:08:21
Перевод: Любительский одноголосый закадровый (visanti-vasaer)

Файл
Кодек: h264
Качество: HDRip
Видео: 1280x720, 24,000 fps, 1827 kbps
Звук: AC3 Dolby Digital 48000 Гц, 2ch, 192 Кбит/сек, русский
Субтитры: hardsub английский, китайский
Формат : Matroska
Версия формата : Version 2
Размер файла : 2,71 Гбайт
Продолжительность : 3 ч. 8 м.
Общий поток : 2060 Кбит/сек
Дата кодирования : UTC 2019-11-08 08:15:01
Программа кодирования : mkvmerge v6.9.1 ('Blue Panther') 32bit built on Apr 18 2014 18:15:44
Библиотека кодирования : libebml v1.3.0 + libmatroska v1.4.1

Видео
Идентификатор : 1
Формат : AVC
Формат/Информация : Advanced Video Codec
Профиль формата : High@L4
Настройки формата : CABAC / 8 Ref Frames
Параметр CABAC формата : Да
Параметр RefFrames формата : 8 кадров
Идентификатор кодека : V_MPEG4/ISO/AVC
Продолжительность : 3 ч. 8 м.
Битрейт : 1827 Кбит/сек
Ширина : 1280 пикселей
Высота : 720 пикселей
Соотношение сторон : 16:9
Режим частоты кадров : Постоянный
Частота кадров : 24,000 кадра/сек
Цветовое пространство : YUV
Субдискретизация насыщенности : 4:2:0
Битовая глубина : 8 бит
Тип развёртки : Прогрессивная
Бит/(Пиксели*Кадры) : 0.083
Размер потока : 2,40 Гбайт (89%)
Библиотека кодирования : x264 core 148 r2638 7599210
Настройки программы : cabac=1 / ref=8 / deblock=1:-2:-1 / analyse=0x3:0x133 / me=umh / subme=9 / psy=1 / psy_rd=1.00:0.20 / mixed_ref=1 / me_range=24 / chroma_me=1 / trellis=2 / 8x8dct=1 / cqm=0 / deadzone=21,11 / fast_pskip=1 / chroma_qp_offset=-3 / threads=1 / lookahead_threads=1 / sliced_threads=0 / nr=0 / decimate=1 / interlaced=0 / bluray_compat=0 / constrained_intra=0 / bframes=8 / b_pyramid=2 / b_adapt=2 / b_bias=0 / direct=3 / weightb=1 / open_gop=0 / weightp=2 / keyint=250 / keyint_min=23 / scenecut=40 / intra_refresh=0 / rc_lookahead=60 / rc=crf / mbtree=1 / crf=20.5 / qcomp=0.60 / qpmin=0 / qpmax=69 / qpstep=4 / ip_ratio=1.40 / aq=1:1.00
Язык : English
Default : Да
Forced : Нет

Аудио
Идентификатор : 2
Формат : AC-3
Формат/Информация : Audio Coding 3
Идентификатор кодека : A_AC3
Продолжительность : 3 ч. 8 м.
Вид битрейта : Постоянный
Битрейт : 192 Кбит/сек
Каналы : 2 канала
Расположение каналов : Front: L R
Частота : 48,0 КГц
Частота кадров : 31,250 кадров/сек (1536 SPF)
Битовая глубина : 16 бит
Метод сжатия : С потерями
Размер потока : 259 Мбайт (9%)
Язык : Russian
ServiceKind/Strin : Complete Main
Default : Да
Forced : Нет
Релиз от: visanti-vasaer
Источник http://BlaTor.org

Трекер:  [ 08-Ноя-2019 18:10 ]

  

Скачать .torrent

Размер .torrent файла 14 KB


Размер: 2.71 GB
Хэш (hash) релиза: 2449db7cd58e6a7f29bbe11610c29d33bc426f5e
Подписка на обновления:

Еще никто не оставлял запись к записи скачать торрент И скоро рассвет And Suddenly the Dawn . Будь первым!

!Обратная связь