Скачать через торрент Терминатор: Тёмные судьбы Terminator: Dark Fate Фильм бесплатно в хорошем качестве torrent

Скачивайте на UnionPeer.org фильмы через торрент без регистрации. Новинки кино в хорошем качестве через торрент. На UnionPeer.org можно скачать через торрент фильмы 2014 и 2015 годов. Самые новые фильмы.

Скачать торрент Терминатор: Тёмные судьбы Terminator: Dark Fate бесплатно через .torrent фильм мультфильм сериал

Статистика раздачи
Размер:  1.42 GB   |    Зарегистрирован:  1 месяц 3 дня   |    .torrent скачан:  494 раза   |   
Раздают:  1  
 

Скачать Терминатор: Тёмные судьбы / Terminator: Dark Fate (2019) TS | Dub через torrent

 
загрузка...
 
Автор Сообщение

Galfimbul

avatar Galfimbul


Терминатор: Тёмные судьбы / Terminator: Dark Fate

Страна: США Китай
Производство: 20th Century Fox Film Corporation, Lightstorm Entertainment, Paramount Pictures, Tencent Pictures
Год выпуска: 2019
Жанр: фантастика, боевик, приключения
Продолжительность: 01:57:45

Режиссер: Тим Миллер
Авторы сценария: Джеймс Кэмерон, Дэвид С. Гойер, Джастин Б. Родс
В ролях: Линда Хэмилтон, Арнольд Шварценеггер, Маккензи Дэвис, Наталия Рейес, Гэбриел Луна, Диего Бонета, Алисия Боррачеро, Энрике Арсе, Стивен Кри, Ферран Фернандес, Тристан Ульоа, Томи Альварес, Том Хоппер, Мануэль Пасифик, Фрайзер Джеймс

Описание: Сара Коннор превратилась в настоящую охотницу за терминаторами и теперь занимается уничтожением роботов-убийц из будущего. Она считала, что главное — это не дать им добраться до Джона, но теперь появилась Дани Рамос, от выживания которой также зависит судьба человечества. Вместе с ней в бой вступает и загадочная девушка Грейс, смесь человека и машины...



Перевод: Профессиональный (дублированный)
Субтитры: нет
Качество: TS
Формат: AVI
Видео кодек: XviD
Аудио кодек: MP3
Видео: 720x304 (2.35:1), 23.976 fps, XviD ~1 493 kbps avg
Аудио: 44.1 kHz, MPEG Layer 3, 2 ch, ~224 kbps avg

Дата премьеры (мир): 23 октября 2019
Дата премьеры (РФ): 31 октября 2019, «Двадцатый Век Фокс СНГ»



<span style="color:Green;">Дополнительная информация: релиз создан исключительно в ознакомительных целях!
General
Complete name : Terminator.Dark.Fate.2019.D.TS-Effx.avi
Format : AVI
Format/Info : Audio Video Interleave
Format profile : OpenDML
File size : 1.42 GiB
Duration : 1 h 57 min
Overall bit rate : 1 731 kb/s
Movie name : Terminator.Dark.Fate.2019.D.TS.14OOMB
Recorded date : 2019-11-11
Writing application : msl

Video
ID : 0
Format : MPEG-4 Visual
Format profile : Advanced Simple@L5
Format settings : BVOP2
Format settings, BVOP : 2
Format settings, QPel : No
Format settings, GMC : No warppoints
Format settings, Matrix : Default (H.263)
Muxing mode : Packed bitstream
Codec ID : XVID
Codec ID/Hint : XviD
Duration : 1 h 57 min
Bit rate : 1 493 kb/s
Width : 720 pixels
Height : 304 pixels
Display aspect ratio : 2.35:1
Frame rate : 23.976 (24000/1001) FPS
Color space : YUV
Chroma subsampling : 4:2:0
Bit depth : 8 bits
Scan type : Progressive
Compression mode : Lossy
Bits/(Pixel*Frame) : 0.284
Stream size : 1.23 GiB (86%)
Writing library : XviD 1.2.1 (UTC 2008-12-04)

Audio
ID : 1
Format : MPEG Audio
Format version : Version 1
Format profile : Layer 3
Format settings : Joint stereo / MS Stereo
Codec ID : 55
Codec ID/Hint : MP3
Duration : 1 h 57 min
Bit rate mode : Constant
Bit rate : 224 kb/s
Channel(s) : 2 channels
Sampling rate : 44.1 kHz
Compression mode : Lossy
Stream size : 189 MiB (13%)
Alignment : Split across interleaves
Interleave, duration : 26 ms (0.63 video frame)
Writing library : LAME3.100
Источник http://BlaTor.org

Трекер:  [ 12-Ноя-2019 06:30 ]

  

Скачать .torrent

Размер .torrent файла 14 KB


Размер: 1.42 GB
Хэш (hash) релиза: e1d509beacb6b2737181e9a949a85364a9968458
Подписка на обновления:

Еще никто не оставлял запись к записи скачать торрент Терминатор: Тёмные судьбы Terminator: Dark Fate . Будь первым!

!Обратная связь