Скачать через торрент Падение ангела Angel Has Fallen Фильм бесплатно в хорошем качестве torrent

Скачивайте на UnionPeer.org фильмы через торрент без регистрации. Новинки кино в хорошем качестве через торрент. На UnionPeer.org можно скачать через торрент фильмы 2014 и 2015 годов. Самые новые фильмы.

Скачать торрент Падение ангела Angel Has Fallen бесплатно через .torrent фильм мультфильм сериал

Статистика раздачи
Размер:  8.38 GB   |    Зарегистрирован:  1 месяц 2 дня   |    .torrent скачан:  301 раз   |   
Раздают:  2  
 

Скачать Падение ангела / Angel Has Fallen (2019) WEB-DL 1080p от селезень | iTunes через torrent

 
загрузка...
 
Автор Сообщение

Galfimbul

avatar Galfimbul


Падение ангела /Angel Has Fallen

Год выхода: 2019
Жанр: Боевик
Режиссер: Рик Роман Во
В ролях: Джерард Батлер, Морган Фримен, Фредерик Шмидт, Дэнни Хьюстон, Рокки Уильямс, Пайпер Перабо, Джада Пинкетт Смит, Гарри Дитсон, Ник Нолти, Лэнс Реддик, Тим Блэйк Нельсон, Крис Браунинг, Екатерина Гусарова, Ори Феффер, Жасмин Хайд, Майкл Лэндис, Марк Арнольд, Керри Шейл, Эндрю Брук, Мартин Берман, Райан Олива, Дерек Сиоу



О фильме: Третья часть антитеррористической экшен-франшизы про высококлассного агента секретной службы США Майка Бэннинга (Джерард Батлер), который спасает от смертельного заговора первых лиц мировой политики. На этот раз целью террористов становится сам Бэннинг. Его подставляют и обвиняют в покушении на президента страны (Морган Фриман) — и теперь его разыскивают все спецслужбы. Чтобы очистить свое доброе имя, Бэннингу нужно самостоятельно раскрыть заговор.

Страна: США
Студия: Campbell Grobman Films, Eclectic Pictures, G-BASE
Продолжительность: 02:01:02
Перевод: Дублированный | iTunes

Качество: WEB-DL 1080p | AMAZON Version
Видео: MPEG-4 AVC, 1920x800, 8886 Kbit/s, 23.976 fps
Аудио #01: 48 kHz, AC3, 5.1, 384 Kbps | iTunes | RUS |
Аудио #02: 48 kHz, E-AC3, 5.1, 640 Kbps | Оригинал | ENG |
Субтитры: Английские

General
Unique ID : 47956634036922518120375196344424347518 (0x24141C9BCDB2F1E85747B57E4710377E)
Complete name : D:Video111Angel.Has.Fallen.2019.AMZN.WEB-DL.1080p.seleZen.mkv
Format : Matroska
Format version : Version 4
File size : 8.38 GiB
Duration : 2 h 1 min
Overall bit rate : 9 913 kb/s
Movie name : Angel Has Fallen 2019 from селезень
Encoded date : UTC 2019-11-12 09:15:23
Writing application : mkvmerge v39.0.0 ('In The Waiting Line') 64-bit
Writing library : libebml v1.3.9 + libmatroska v1.5.2

Video
ID : 1
Format : AVC
Format/Info : Advanced Video Codec
Format profile : High@L4
Format settings : CABAC / 4 Ref Frames
Format settings, CABAC : Yes
Format settings, Reference : 4 frames
Codec ID : V_MPEG4/ISO/AVC
Duration : 2 h 1 min
Bit rate mode : Constant
Bit rate : 8 886 kb/s
Nominal bit rate : 10 000 kb/s
Width : 1 920 pixels
Height : 800 pixels
Display aspect ratio : 2.40:1
Frame rate mode : Constant
Frame rate : 23.976 (24000/1001) FPS
Color space : YUV
Chroma subsampling : 4:2:0
Bit depth : 8 bits
Scan type : Progressive
Bits/(Pixel*Frame) : 0.241
Stream size : 7.51 GiB (90%)
Language : English
Default : Yes
Forced : No
Color range : Limited
Color primaries : BT.709
Transfer characteristics : BT.709
Matrix coefficients : BT.709

Audio #1
ID : 2
Format : AC-3
Format/Info : Audio Coding 3
Commercial name : Dolby Digital
Codec ID : A_AC3
Duration : 2 h 1 min
Bit rate mode : Constant
Bit rate : 384 kb/s
Channel(s) : 6 channels
Channel layout : L R C LFE Ls Rs
Sampling rate : 48.0 kHz
Frame rate : 31.250 FPS (1536 SPF)
Bit depth : 16 bits
Compression mode : Lossy
Stream size : 332 MiB (4%)
Title : iTunes
Language : Russian
Service kind : Complete Main
Default : Yes
Forced : Yes

Audio #2
ID : 3
Format : E-AC-3
Format/Info : Enhanced AC-3
Commercial name : Dolby Digital Plus
Codec ID : A_EAC3
Duration : 2 h 1 min
Bit rate mode : Constant
Bit rate : 640 kb/s
Channel(s) : 6 channels
Channel layout : L R C LFE Ls Rs
Sampling rate : 48.0 kHz
Frame rate : 31.250 FPS (1536 SPF)
Compression mode : Lossy
Stream size : 554 MiB (6%)
Title : Original
Language : English
Service kind : Complete Main
Default : No
Forced : No

Text #1
ID : 4
Format : UTF-8
Codec ID : S_TEXT/UTF8
Codec ID/Info : UTF-8 Plain Text
Duration : 1 h 51 min
Bit rate : 58 b/s
Count of elements : 1452
Stream size : 47.5 KiB (0%)
Title : Full
Language : English
Default : No
Forced : No

Text #2
ID : 5
Format : UTF-8
Codec ID : S_TEXT/UTF8
Codec ID/Info : UTF-8 Plain Text
Duration : 1 h 52 min
Bit rate : 63 b/s
Count of elements : 1580
Stream size : 52.6 KiB (0%)
Title : SDH
Language : English
Default : No
Forced : No

Menu
00:00:00.000 : en:Studio Logo
00:00:38.000 : en:Scene 2
00:01:27.000 : en:Title Sequence
00:01:32.000 : en:Scene 4
00:06:49.000 : en:Scene 5
00:08:21.000 : en:Scene 6
00:09:07.000 : en:Scene 7
00:11:33.000 : en:Scene 8
00:16:00.000 : en:Scene 9
00:23:14.000 : en:Scene 10
00:28:36.000 : en:Scene 11
00:32:28.000 : en:Scene 12
00:39:40.000 : en:Scene 13
00:41:01.000 : en:Scene 14
00:42:07.000 : en:Scene 15
00:50:56.000 : en:Scene 16
00:53:04.000 : en:Scene 17
00:57:43.000 : en:Scene 18
00:59:23.000 : en:Scene 19
01:03:06.000 : en:Scene 20
01:06:10.000 : en:Scene 21
01:10:46.000 : en:Scene 22
01:16:26.000 : en:Scene 23
01:19:23.000 : en:Scene 24
01:24:11.000 : en:Scene 25
01:30:10.000 : en:Scene 26
01:39:41.000 : en:Scene 27
01:44:27.000 : en:Scene 28
01:50:53.000 : en:End Credits
Источник http://BlaTor.org

Трекер:  [ 12-Ноя-2019 12:30 ]

  

Скачать .torrent

Размер .torrent файла 11 KB


Размер: 8.38 GB
Хэш (hash) релиза: 39b122d55d03f355ec4c02ae2f757ffc7b580ed5
Подписка на обновления:

Торренты, похожие на Падение ангела Angel Has Fallen скачать торрент

Форум Название Автор Размер S L Добавлен
Зарубежные фильмы 2016-2018 (Новинки зарубежного кино) ·%· Падение ангела / Angel Has Fallen (2019) UHD BDRemux 2160p от селезень | 4K | HDR | Dolby Vision | iTunes Galfimbul 7565176873370.46 GB 0 0 1576307421

10:10

14-Дек-19

Зарубежные фильмы 2016-2018 (Новинки зарубежного кино) ·%· Падение ангела / Angel Has Fallen (2019) BDRip-AVC от OlLanDGroup | iTunes Galfimbul 780257820744 MB 0 0 1574427609

16:00

22-Ноя-19

Зарубежные фильмы 2016-2018 (Новинки зарубежного кино) ·%· Падение ангела / Angel Has Fallen (2019) BDRip-AVC от OlLanDGroup | iTunes Galfimbul 19663692271.83 GB 2 0 1574391012

05:50

22-Ноя-19

Зарубежные фильмы 2016-2018 (Новинки зарубежного кино) ·%· Падение ангела / Angel Has Fallen (2019) BDRip 1080p | iTunes Galfimbul 1904085782917.73 GB 2 0 1574139613

08:00

19-Ноя-19

Зарубежные фильмы 2016-2018 (Новинки зарубежного кино) ·%· Падение ангела / Angel Has Fallen (2019) BDRip 720p | iTunes Galfimbul 83327864527.76 GB 0 0 1574139608

08:00

19-Ноя-19

Зарубежные фильмы 2016-2018 (Новинки зарубежного кино) ·%· Падение ангела / Angel Has Fallen (2019) UHD BDRip-HEVC 1080p от HEVC-CLUB | iTunes Galfimbul 1196279598211.14 GB 2 0 1574109620

23:40

18-Ноя-19

Зарубежные фильмы 2016-2018 (Новинки зарубежного кино) ·%· Падение ангела / Angel Has Fallen (2019) BDRip от Twister & ExKinoRay | iTunes Galfimbul 15697417701.46 GB 0 0 1574100039

21:00

18-Ноя-19

Зарубежные фильмы 2016-2018 (Новинки зарубежного кино) ·%· Падение ангела / Angel Has Fallen (2019) BDRip от Twister & ExKinoRay | iTunes Galfimbul 22848126682.13 GB 0 0 1574100028

21:00

18-Ноя-19

Зарубежные фильмы 2016-2018 (Новинки зарубежного кино) ·%· Падение ангела / Angel Has Fallen (2019) HDRip | КПК | iTunes Galfimbul 519827454496 MB 0 0 1574092813

19:00

18-Ноя-19

Зарубежные фильмы 2016-2018 (Новинки зарубежного кино) ·%· Падение ангела / Angel Has Fallen (2019) UHD BDRemux 2160p от селезень | 4K | HDR | Dolby Vision TV | iTunes Galfimbul 6813684413763.46 GB 0 0 1574026217

00:30

18-Ноя-19

Зарубежные фильмы 2016-2018 (Новинки зарубежного кино) ·%· Падение ангела / Angel Has Fallen (2019) UHD BDRip-HEVC 2160p | 4K | HDR | iTunes Galfimbul 2012009926218.74 GB 0 0 1574023811

23:50

17-Ноя-19

Зарубежные фильмы 2016-2018 (Новинки зарубежного кино) ·%· Падение ангела / Angel Has Fallen (2019) BDRip 720p от селезень | iTunes Galfimbul 54685698535.09 GB 0 0 1574019013

22:30

17-Ноя-19

Зарубежные фильмы 2016-2018 (Новинки зарубежного кино) ·%· Падение ангела / Angel Has Fallen (2019) HDRip от MegaPeer | iTunes Galfimbul 784683416748 MB 0 0 1574014207

21:10

17-Ноя-19

Зарубежные фильмы 2016-2018 (Новинки зарубежного кино) ·%· Падение ангела / Angel Has Fallen (2019) BDRip от MegaPeer | iTunes Galfimbul 22850457602.13 GB 3 0 1574008815

19:40

17-Ноя-19

Зарубежные фильмы 2016-2018 (Новинки зарубежного кино) ·%· Падение ангела / Angel Has Fallen (2019) BDRemux 1080p от селезень | iTunes Galfimbul 3222064606230.01 GB 0 0 1574002809

18:00

17-Ноя-19

Зарубежные фильмы 2016-2018 (Новинки зарубежного кино) ·%· Падение ангела / Angel Has Fallen (2019) BDRip 720p | iTunes Galfimbul 44536199824.15 GB 2 0 1573940410

00:40

17-Ноя-19

Зарубежные фильмы 2016-2018 (Новинки зарубежного кино) ·%· Падение ангела / Angel Has Fallen (2019) BDRip-HEVC 1080p от NNMClub | iTunes Galfimbul 94544246768.81 GB 0 0 1573911614

16:40

16-Ноя-19

Зарубежные фильмы 2016-2018 (Новинки зарубежного кино) ·%· Падение ангела / Angel Has Fallen (2019) UHD BDRemux 2160p от селезень | 4K | HDR | iTunes Galfimbul 6423686938259.83 GB 0 0 1573843816

21:50

15-Ноя-19

Зарубежные фильмы 2016-2018 (Новинки зарубежного кино) ·%· Падение ангела / Angel Has Fallen (2019) BDRip 1080p от селезень | iTunes Galfimbul 1807662561316.84 GB 2 0 1573840228

20:50

15-Ноя-19

Зарубежные фильмы 2016-2018 (Новинки зарубежного кино) ·%· Падение ангела / Angel Has Fallen (2019) WEB-DLRip от Scarabey | iTunes Galfimbul 15540613121.45 GB 0 0 1573583416

21:30

12-Ноя-19

Еще никто не оставлял запись к записи скачать торрент Падение ангела Angel Has Fallen . Будь первым!

!Обратная связь