Скачать через торрент Живое Life Фильм бесплатно в хорошем качестве torrent

Скачивайте на UnionPeer.org фильмы через торрент без регистрации. Новинки кино в хорошем качестве через торрент. На UnionPeer.org можно скачать через торрент фильмы 2014 и 2015 годов. Самые новые фильмы.

Скачать торрент Живое Life бесплатно через .torrent фильм мультфильм сериал

Статистика раздачи
Размер:  4.25 GB   |    Зарегистрирован:  4 года 3 месяца   |    .torrent скачан:  44 раза   |   
Раздают:  1  
 

Скачать Живое / Life (2017) BDRip-HEVC 1080p от HEVC-CLUB | D через torrent

 
 
Автор Сообщение

Galfimbul

avatar Galfimbul


Живое / Life

Год выхода: 2017
Производство: США / Columbia Pictures, Skydance Media, Skydance Media
Жанр: Фантастика, Триллер, Ужасы
Перевод: Дублированный
Продолжительность: 01:43:58

Режиссер: Даниэль Эспиноса
В ролях: Джейк Джилленхол, Ребекка Фергюсон (II), Райан Рейнольдс, Ольга Дыховичная, Эрион Бакаре, Хироюки Санада, Наоко Мори, Александр Нгуйен, Камиль Уоррен-Тейлор, Хиу Ун-Син

Описание: Группа исследователей с международного космического корабля обнаруживает жизнь на Марсе. Они еще не подозревают, какие события повлечет за собой их открытие.

Формат: MKV
Качество: BDRip-HEVC 1080p
Видео : HEVC/X.265, 1920x804, ~4571 kb/s, 10 bit
Аудио 1 : AC3, 6 ch, 640 Kbps - Русский, дублированный
Аудио 2 : AC3, 6 ch, 640 Kbps - Английский

Субтитры: Русские (форсированные, полные), английские (полные, SDH-Colored)

General
Unique ID : 108702996515879944041225519112392034852 (0x51C76F83B543348AF45F42DA5C344A24)
Complete name : D:Download/Life (2017) BDRip 1080p [HEVC] (1).mkv
Format : Matroska
Format version : Version 4
File size : 4.25 GiB
Duration : 1 h 43 min
Overall bit rate : 5 854 kb/s
Movie name : Life (2017)
Encoded date : UTC 2019-11-10 14:59:12
Writing application : mkvmerge v38.0.0 ('The Silent Type') 64-bit
Writing library : libebml v1.3.9 + libmatroska v1.5.2
Cover : Yes
Attachments : cover.jpg

Video
ID : 1
Format : HEVC
Format/Info : High Efficiency Video Coding
Format profile : Main [email protected]@High
Codec ID : V_MPEGH/ISO/HEVC
Duration : 1 h 43 min
Bit rate : 4 571 kb/s
Width : 1 920 pixels
Height : 804 pixels
Display aspect ratio : 2.40:1
Frame rate mode : Constant
Frame rate : 23.976 (23976/1000) FPS
Original frame rate : 23.976 (24000/1001) FPS
Color space : YUV
Chroma subsampling : 4:2:0
Bit depth : 10 bits
Bits/(Pixel*Frame) : 0.124
Stream size : 3.32 GiB (78%)
Title : Life
Writing library : x265 3.1.2+1-76650bab70f9:[Windows][MSVC 1922][64 bit] 10bit
Encoding settings : cpuid=1111039 / frame-threads=3 / numa-pools=12 / wpp / no-pmode / no-pme / no-psnr / no-ssim / log-level=2 / input-csp=1 / input-res=1920x804 / interlace=0 / total-frames=149567 / level-idc=41 / high-tier=1 / uhd-bd=0 / ref=5 / no-allow-non-conformance / no-repeat-headers / annexb / no-aud / no-hrd / info / hash=0 / no-temporal-layers / open-gop / min-keyint=23 / keyint=240 / gop-lookahead=0 / bframes=12 / b-adapt=2 / b-pyramid / bframe-bias=0 / rc-lookahead=60 / lookahead-slices=4 / scenecut=40 / radl=0 / no-splice / no-intra-refresh / ctu=32 / min-cu-size=8 / rect / amp / max-tu-size=32 / tu-inter-depth=4 / tu-intra-depth=4 / limit-tu=1 / rdoq-level=2 / dynamic-rd=0.00 / no-ssim-rd / signhide / no-tskip / nr-intra=0 / nr-inter=0 / no-constrained-intra / no-strong-intra-smoothing / max-merge=4 / limit-refs=2 / limit-modes / me=3 / subme=7 / merange=57 / temporal-mvp / weightp / weightb / no-analyze-src-pics / deblock=-3:-3 / no-sao / no-sao-non-deblock / rd=6 / no-early-skip / no-rskip / no-fast-intra / no-tskip-fast / no-cu-lossless / no-b-intra / no-splitrd-skip / rdpenalty=0 / psy-rd=2.00 / psy-rdoq=1.00 / no-rd-refine / no-lossless / cbqpoffs=0 / crqpoffs=0 / rc=crf / crf=21.0 / qcomp=0.75 / qpstep=4 / stats-write=0 / stats-read=0 / vbv-maxrate=50000 / vbv-bufsize=50000 / vbv-init=0.9 / crf-max=0.0 / crf-min=0.0 / ipratio=1.40 / pbratio=1.30 / aq-mode=1 / aq-strength=1.00 / no-cutree / zone-count=0 / no-strict-cbr / qg-size=32 / no-rc-grain / qpmax=69 / qpmin=0 / no-const-vbv / sar=1 / overscan=0 / videoformat=5 / range=0 / colorprim=1 / transfer=1 / colormatrix=1 / chromaloc=0 / display-window=0cll=0,0 / min-luma=0 / max-luma=1023 / log2-max-poc-lsb=8 / vui-timing-info / vui-hrd-info / slices=1 / no-opt-qp-pps / no-opt-ref-list-length-pps / no-multi-pass-opt-rps / scenecut-bias=0.05 / no-opt-cu-delta-qp / no-aq-motion / no-hdr / no-hdr-opt / no-dhdr10-opt / no-idr-recovery-sei / analysis-reuse-level=5 / scale-factor=0 / refine-intra=0 / refine-inter=0 / refine-mv=0 / refine-ctu-distortion=0 / no-limit-sao / ctu-info=0 / no-lowpass-dct / refine-analysis-type=0 / copy-pic=1 / max-ausize-factor=1.0 / no-dynamic-refine / no-single-sei / no-hevc-aq / no-svt / no-field / qp-adaptation-range=1.00
Language : English
Default : Yes
Forced : No
Color range : Limited
Color primaries : BT.709
Transfer characteristics : BT.709
Matrix coefficients : BT.709

Audio #1
ID : 2
Format : AC-3
Format/Info : Audio Coding 3
Commercial name : Dolby Digital
Codec ID : A_AC3
Duration : 1 h 43 min
Bit rate mode : Constant
Bit rate : 640 kb/s
Channel(s) : 6 channels
Channel layout : L R C LFE Ls Rs
Sampling rate : 48.0 kHz
Frame rate : 31.250 FPS (1536 SPF)
Compression mode : Lossy
Stream size : 476 MiB (11%)
Title : Dub | DD 5.1 @ 640 kbps - Blu-ray EUR
Language : Russian
Service kind : Complete Main
Default : Yes
Forced : No

Audio #2
ID : 3
Format : AC-3
Format/Info : Audio Coding 3
Commercial name : Dolby Digital
Codec ID : A_AC3
Duration : 1 h 43 min
Bit rate mode : Constant
Bit rate : 640 kb/s
Channel(s) : 6 channels
Channel layout : L R C LFE Ls Rs
Sampling rate : 48.0 kHz
Frame rate : 31.250 FPS (1536 SPF)
Compression mode : Lossy
Stream size : 476 MiB (11%)
Title : Original | DD 5.1 @ 640 kbps
Language : English
Service kind : Complete Main
Default : No
Forced : No

Text #1
ID : 4
Format : UTF-8
Codec ID : S_TEXT/UTF8
Codec ID/Info : UTF-8 Plain Text
Duration : 1 h 41 min
Bit rate : 2 b/s
Count of elements : 38
Stream size : 1.50 KiB (0%)
Title : Forced
Language : Russian
Default : Yes
Forced : No

Text #2
ID : 5
Format : UTF-8
Codec ID : S_TEXT/UTF8
Codec ID/Info : UTF-8 Plain Text
Duration : 1 h 41 min
Bit rate : 69 b/s
Count of elements : 1109
Stream size : 51.3 KiB (0%)
Title : iTunes
Language : Russian
Default : No
Forced : No

Text #3
ID : 6
Format : UTF-8
Codec ID : S_TEXT/UTF8
Codec ID/Info : UTF-8 Plain Text
Duration : 1 h 32 min
Bit rate : 51 b/s
Count of elements : 1132
Stream size : 34.7 KiB (0%)
Title : Full
Language : English
Default : No
Forced : No

Text #4
ID : 7
Format : UTF-8
Codec ID : S_TEXT/UTF8
Codec ID/Info : UTF-8 Plain Text
Duration : 1 h 35 min
Bit rate : 94 b/s
Count of elements : 1437
Stream size : 66.1 KiB (0%)
Title : SDH-Colored
Language : English
Default : No
Forced : No

Menu
00:00:00.000 : en:(01)00:00:00:000
00:09:32.863 : en:(02)00:09:32:863
00:13:13.083 : en:(03)00:13:13:083
00:15:36.894 : en:(04)00:15:36:894
00:19:35.340 : en:(05)00:19:35:340
00:24:57.454 : en:(06)00:24:57:454
00:34:36.991 : en:(07)00:34:36:991
00:40:45.109 : en:(08)00:40:45:109
00:43:59.303 : en:(09)00:43:59:303
00:52:21.805 : en:(10)00:52:21:805
00:58:33.927 : en:(11)00:58:33:927
01:06:37.785 : en:(12)01:06:37:785
01:11:43.257 : en:(13)01:11:43:257
01:17:50.874 : en:(14)01:17:50:874
01:22:39.621 : en:(15)01:22:39:621
01:28:34.309 : en:(16)01:28:34:309
Релиз от: Mr. Fox
Источник http://BlaTor.org

Внимание! AdBlock блокирует показ скриншотов, все вопросы к разработчикам )))
Трекер:  [ 12-Ноя-2019 13:50 ]

  

Скачать .torrent

Размер .torrent файла 11 KB


Размер: 4.25 GB
Хэш (hash) релиза: 2156314b4d7a58cee8df89a18ed6ff499cc1a2a2
Подписка на обновления:

Торренты, похожие на Живое Life скачать торрент

Форум Название Автор Размер S L Добавлен
Зарубежные фильмы 2016-2019 (Новинки зарубежного кино) ·· Живое / Life (2017) BDRemux 1080p | D, A Galfimbul 3044336810628.35 GB 0 0 1580538608

09:30

1-Фев-20

Зарубежные фильмы 2016-2019 (Новинки зарубежного кино) ·%· Живое / Life (2017) BDRip-HEVC 1080p от HEVC-CLUB | Лицензия Galfimbul 56201982495.23 GB 0 0 1571503830

19:50

19-Окт-19

Зарубежные фильмы 2016-2019 (Новинки зарубежного кино) ·· Живое / Life (Даниэль Эспиноса) [2017 г., ужасы, фантастика, триллер, BDRemux 1080p] D, A | Лицензия Galfimbul 3044309527528.35 GB 0 0 1518847837

09:10

17-Фев-18

Зарубежные фильмы 2016-2019 (Новинки зарубежного кино) ·· Живое / Life (Даниэль Эспиноса) [2017 г., ужасы, фантастика, триллер, BDRip 1080p] D, A | Лицензия Galfimbul 1666509981715.52 GB 0 0 1518846618

08:50

17-Фев-18

Зарубежные фильмы до 2016 ·· Живое / Life (Даниэль Эспиноса / Daniel Espinosa) [2017, США, ужасы, фантастика, триллер, BD>DVD9 (Custom)] DUB + AVO (В. Дохалов) + Sub Rus / Eng + Original Eng Galfimbul 77589360647.23 GB 0 0 1508997968

09:06

26-Окт-17

Зарубежные фильмы до 2016 ·· Живое / Life (Стивен Гейган / Stephen Gaghan) [2017, США, ужасы, фантастика, триллер, BD>DVD5 (Custom)] DUB + AVO (В. Дохалов) + Sub Rus / Eng + Original Eng Galfimbul 46718648324.35 GB 0 0 1508222169

09:36

17-Окт-17

Зарубежные фильмы до 2016 ·· Живое / Life (Даниэль Эспиноса / Daniel Espinosa) [2017, США, Ужасы, фантастика, триллер, DVD5 (сжатый)] исх. R2, Dub + Sub Rus + Original Eng Galfimbul 46919475204.37 GB 0 0 1502006780

11:06

6-Авг-17

Зарубежные фильмы 2016-2019 (Новинки зарубежного кино) ·· Живое / Life (Даниэль Эспиноса / Daniel Espinosa) [2017, США, ужасы, фантастика, триллер, BDRip-AVC] Dub (BD EUR)+ Original + Sub (rus, eng) Galfimbul 23577939402.2 GB 0 0 1501794071

00:01

4-Авг-17

Зарубежные фильмы 2016-2019 (Новинки зарубежного кино) ·· Живое / Life (Даниэль Эспиноса / Daniel Espinosa) [2017, США, ужасы, фантастика, триллер, Blu-Ray EUR 1080p] Лицензия Galfimbul 3359016442631.28 GB 0 0 1501706414

23:40

2-Авг-17

Зарубежные фильмы до 2016 ·· Живое / Life (Даниэль Эспиноса / Daniel Espinosa) [2017, США, Ужасы, фантастика, триллер, DVD9] Dub + Sub Rus + Original Eng Galfimbul 59887778785.58 GB 0 0 1501265174

21:06

28-Июл-17

Зарубежные фильмы 2016-2019 (Новинки зарубежного кино) ·· Живое / Life (Даниэль Эспиноса / Daniel Espinosa) [2017, США, ужасы, фантастика, триллер, HDRip] AVO (Дохалов) Galfimbul 15642767361.46 GB 0 0 1500453025

11:30

19-Июл-17

Зарубежные фильмы 2016-2019 (Новинки зарубежного кино) ·· Живое / Life (Даниэль Эспиноса) [2017 г., ужасы, фантастика, триллер, BDRip] Galfimbul 22407296242.09 GB 0 0 1499149214

09:20

4-Июл-17

Зарубежные фильмы 2016-2019 (Новинки зарубежного кино) ·· Живое / Life (Даниэль Эспиноса / Daniel Espinosa) [2017, США, ужасы, фантастика, триллер, BDRip] Dub + Sub Rus, Eng + Original Eng Galfimbul 23384421782.18 GB 0 0 1498813271

12:01

30-Июн-17

Зарубежные фильмы 2016-2019 (Новинки зарубежного кино) ·· Живое / Life (Даниэль Эспиноса / Daniel Espinosa) [2017, США, ужасы, фантастика, триллер, BDRip-AVC] Dub (iTunes) Galfimbul 781186870745 MB 0 0 1497625274

18:01

16-Июн-17

Зарубежные фильмы 2016-2019 (Новинки зарубежного кино) ·· Живое / Life (Даниэль Эспиноса / Daniel Espinosa) [2017, США, Ужасы, фантастика, триллер, BDRip-AVC] Dub + Sub Rus, Eng + Original Eng Galfimbul 27779117722.59 GB 0 0 1497493826

05:30

15-Июн-17

Зарубежные фильмы до 2016 ·· Живое / Life (Даниэль Эспиноса / Daniel Espinosa) [2017, США, ужасы, фантастика, триллер, BDRip 720p] Dub (iTunes) + Sub Rus, Ukr, Eng + Original Eng Galfimbul 64269439635.99 GB 0 0 1497443773

15:36

14-Июн-17

Зарубежные фильмы 2016-2019 (Новинки зарубежного кино) ·· Живое / Life (Даниэль Эспиноса) [2017, ужасы, фантастика, триллер, BDRip 1080p] 60 fps Galfimbul 86295898628.04 GB 0 0 1497174631

12:50

11-Июн-17

Зарубежные фильмы 2016-2019 (Новинки зарубежного кино) ·· Живое / Life (Даниэль Эспиноса) [2017 г., ужасы, фантастика, триллер, BDRip 1080p] iTunes Galfimbul 1175618587410.95 GB 0 0 1496930408

17:00

8-Июн-17

Зарубежные фильмы 2016-2019 (Новинки зарубежного кино) ·· Живое / Life (Даниэль Эспиноса) [2017 г., ужасы, фантастика, триллер, HDRip] iTunes Galfimbul 781862059746 MB 0 0 1496928610

16:30

8-Июн-17

Еще никто не оставлял запись к записи скачать торрент Живое Life . Будь первым!

!Обратная связь