Скачать через торрент Болевой порог Фильм бесплатно в хорошем качестве torrent

Скачивайте на UnionPeer.org фильмы через торрент без регистрации. Новинки кино в хорошем качестве через торрент. На UnionPeer.org можно скачать через торрент фильмы 2014 и 2015 годов. Самые новые фильмы.

Скачать торрент Болевой порог бесплатно через .torrent фильм мультфильм сериал

Статистика раздачи
Размер:  2.84 GB   |    Зарегистрирован:  1 месяц 2 дня   |    .torrent скачан:  156 раз   |   
Раздают:  1  
 

Скачать Болевой порог (2019) WEB-DL 1080p | iTunes через torrent

 
загрузка...
 
Автор Сообщение

Galfimbul

avatar Galfimbul


Название: Болевой порог
Год выхода: 2019
Жанр: Триллер, приключения, драма
Режиссер: Андрей Симонов
В ролях: Арина Постникова, Роман Курцын, Кирилл Комаров, Наталья Скоморохова, Григорий Чабан, Александр Голубков, Олег Фомин, Евгений Атарик, Евгений Мундум, Алексей Дерябкин, Вилен Бабичев

О фильме: В результате скандального ДТП четверо москвичей - двое друзей и их девушки - вынуждены уехать из столицы в Горный Алтай. Они хотят расслабиться и отдохнуть, но вновь попадают в экстремальную ситуацию, где каждый проявит свой характер и столкнется с собственными демонами. На кону - дружба, любовь и сама возможность остаться в живых.


Страна: Россия
Студия: Лук-фильм, Р Медиа
Продолжительность: 01:21:05
Перевод: Не требуется | iTunes

Файл
Качество: WEB-DL 1080p
Контейнер: MKV
Видео: MPEG-4 AVC, 1920x814, 4523 Kbps, 25.000 fps
Аудио: Russian: AC3, 6 ch, 48 kHz, 384 kbps - iTunes
Субтитры: Нет
General
Unique ID : 192026429819173559182624257956369682685 (0x9076F1F40E62F6C9BAE622192F1850FD)
Complete name : BOLEOJ_POROG_WEB-DL_1080p-BLUEBIRD.mkv
Format : Matroska
Format version : Version 4 / Version 2
File size : 2.84 GiB
Duration : 1 h 21 min
Overall bit rate : 5 007 kb/s
Movie name : BOLEOJ_POROG_WEB-DL_1080p-BLUEBIRD
Encoded date : UTC 2019-11-12 00:13:48
Writing application : mkvmerge v6.9.1 ('Blue Panther') 32bit built on Apr 18 2014 18:15:44
Writing library : libebml v1.3.0 + libmatroska v1.4.1
Cover : Yes
Attachments : cover.png

Video
ID : 1
Format : AVC
Format/Info : Advanced Video Codec
Format profile : High@L4
Format settings, CABAC : Yes
Format settings, RefFrames : 5 frames
Codec ID : V_MPEG4/ISO/AVC
Duration : 1 h 21 min
Bit rate : 4 523 kb/s
Width : 1 920 pixels
Height : 814 pixels
Display aspect ratio : 2.35:1
Frame rate mode : Constant
Frame rate : 25.000 FPS
Color space : YUV
Chroma subsampling : 4:2:0
Bit depth : 8 bits
Scan type : Progressive
Bits/(Pixel*Frame) : 0.116
Stream size : 2.56 GiB (90%)
Language : English
Default : Yes
Forced : No
Color range : Limited
Color primaries : BT.709
Transfer characteristics : BT.709
Matrix coefficients : BT.709

Audio
ID : 2
Format : AC-3
Format/Info : Audio Coding 3
Format settings, Endianness : Big
Codec ID : A_AC3
Duration : 1 h 21 min
Bit rate mode : Constant
Bit rate : 384 kb/s
Channel(s) : 6 channels
Channel positions : Front: L C R, Side: L R, LFE
Sampling rate : 48.0 kHz
Frame rate : 31.250 FPS (1536 SPF)
Bit depth : 16 bits
Compression mode : Lossy
Stream size : 223 MiB (8%)
Title : [ORIGINAL] DD 5.1 @ 384 kbps (iTunes)
Language : Russian
Service kind : Complete Main
Default : Yes
Forced : No

Menu
00:00:00.000 : en:Глава 1
00:08:01.440 : en:Глава 2
00:16:32.680 : en:Глава 3
00:24:46.640 : en:Глава 4
00:33:05.880 : en:Глава 5
00:41:10.920 : en:Глава 6
00:49:39.120 : en:Глава 7
00:58:02.760 : en:Глава 8
01:06:11.480 : en:Глава 9
01:14:19.600 : en:Глава 10
Источник http://BlaTor.org

Трекер:  [ 12-Ноя-2019 16:10 ]

  

Скачать .torrent

Размер .torrent файла 14 KB


Размер: 2.84 GB
Хэш (hash) релиза: ecf9eb880c122cf3a34dd33b9d04de55b63286ae
Подписка на обновления:

Торренты, похожие на Болевой порог скачать торрент

Форум Название Автор Размер S L Добавлен
Российские фильмы 2016-2018 (Новинки русского кино) ·%· Болевой порог (2019) WEB-DLRip от Scarabey | iTunes Galfimbul 14552821761.36 GB 2 0 1573750214

19:50

14-Ноя-19

Российские фильмы 2016-2018 (Новинки русского кино) ·%· Болевой порог (2019) WEB-DLRip | КПК | iTunes Galfimbul 386531925369 MB 0 0 1573732213

14:50

14-Ноя-19

Российские фильмы 2016-2018 (Новинки русского кино) ·%· Болевой порог (2019) WEB-DLRip-AVC от OlLanDGroup | iTunes Galfimbul 780694950745 MB 0 0 1573609217

04:40

13-Ноя-19

Российские фильмы 2016-2018 (Новинки русского кино) ·%· Болевой порог (2019) WEB-DLRip-AVC от ExKinoRay | iTunes Galfimbul 18209289801.7 GB 2 0 1573596018

01:00

13-Ноя-19

Российские фильмы 2016-2018 (Новинки русского кино) ·%· Болевой порог (2019) WEB-DLRip-AVC от Files-x | iTunes Galfimbul 15621376291.45 GB 0 0 1573582224

21:10

12-Ноя-19

Российские фильмы 2016-2018 (Новинки русского кино) ·%· Болевой порог (2019) WEB-DLRip от OlLanDGroup | iTunes Galfimbul 781574144745 MB 0 0 1573582218

21:10

12-Ноя-19

Российские фильмы 2016-2018 (Новинки русского кино) ·%· Болевой порог (2019) WEB-DLRip | iTunes Galfimbul 15624704001.46 GB 0 0 1573581017

20:50

12-Ноя-19

Еще никто не оставлял запись к записи скачать торрент Болевой порог . Будь первым!

!Обратная связь