Скачать через торрент Гемини Gemini Man Фильм бесплатно в хорошем качестве torrent

Скачивайте на UnionPeer.org фильмы через торрент без регистрации. Новинки кино в хорошем качестве через торрент. На UnionPeer.org можно скачать через торрент фильмы 2014 и 2015 годов. Самые новые фильмы.

Скачать торрент Гемини Gemini Man бесплатно через .torrent фильм мультфильм сериал

Статистика раздачи
Размер:  1.49 GB   |    Зарегистрирован:  26 дней   |    .torrent скачан:  450 раз   |   
Раздают:  1  
 

Скачать Гемини / Gemini Man (2019) WEBRip | D | Line через torrent

 
загрузка...
 
Автор Сообщение

Galfimbul

avatar Galfimbul


Гемини / Gemini Man

Страна: США Китай
Производство: Jerry Bruckheimer Films, Alibaba Pictures, Skydance Productions, Fosun Group Forever Pictures
Год выпуска: 2019
Жанр: боевик, фантастика
Продолжительность: 01:46:43

Режиссер: Энг Ли / Ang Lee
В ролях: Уилл Смит, Мэри Элизабет Уинстэд, Клайв Оуэн, Бенедикт Вонг, Дуглас Ходж, Ральф Браун, Линда Эмонд, Илья Волох, Э.Дж. Бонилья, Виктор Хьюго, Дэвид Моретти, Теодора Вулли, Диего Адонье, Лилла Банак, Игорь Сас, Алекса Дьёрдь, Фернанда Дороги

Описание: Первоклассный киллер Генри Броган становится мишенью таинственного оперативника, который, кажется, знает наперёд каждый его шаг...



Перевод: Профессиональный (дублированный) | чистый звук
Субтитры: корейские (hardsub) / неотключаемые
Качество: WEBRip
Формат: AVI
Видео кодек: XviD
Аудио кодек: MP3
Видео: 720x384 (1.85:1), 23.976 fps, XviD ~1 759 kbps avg
Аудио: 44.1 kHz, MPEG Layer 3, 2 ch, ~224 kbps avg

Дата премьеры (мир): 25 сентября 2019
Дата премьеры (РФ): 10 октября 2019, «Централ Партнершип»



<span style="color:Green;">Дополнительная информация: релиз создан исключительно в ознакомительных целях!
General
Complete name : Gemini.Man.2019.D.WEBRip-Effx.avi
Format : AVI
Format/Info : Audio Video Interleave
Format profile : OpenDML
File size : 1.49 GiB
Duration : 1 h 46 min
Overall bit rate : 1 997 kb/s
Movie name : Gemini.Man.2019.D.HDTVRip.14OOMB
Recorded date : 2019-11-17
Writing application : msl

Video
ID : 0
Format : MPEG-4 Visual
Format profile : Advanced Simple@L5
Format settings, BVOP : No
Format settings, QPel : No
Format settings, GMC : No warppoints
Format settings, Matrix : Default (H.263)
Codec ID : XVID
Codec ID/Hint : XviD
Duration : 1 h 46 min
Bit rate : 1 759 kb/s
Width : 720 pixels
Height : 384 pixels
Display aspect ratio : 1.85:1
Frame rate : 23.976 (24000/1001) FPS
Color space : YUV
Chroma subsampling : 4:2:0
Bit depth : 8 bits
Scan type : Progressive
Compression mode : Lossy
Bits/(Pixel*Frame) : 0.265
Stream size : 1.31 GiB (88%)
Writing library : XviD 1.2.1 (UTC 2008-12-04)

Audio
ID : 1
Format : MPEG Audio
Format version : Version 1
Format profile : Layer 3
Format settings : Joint stereo / MS Stereo
Codec ID : 55
Codec ID/Hint : MP3
Duration : 1 h 46 min
Bit rate mode : Constant
Bit rate : 224 kb/s
Channel(s) : 2 channels
Sampling rate : 44.1 kHz
Compression mode : Lossy
Stream size : 171 MiB (11%)
Alignment : Split across interleaves
Interleave, duration : 26 ms (0.63 video frame)
Источник http://BlaTor.org

Трекер:  [ 19-Ноя-2019 07:00 ]

  

Скачать .torrent

Размер .torrent файла 15 KB


Размер: 1.49 GB
Хэш (hash) релиза: 42baf4f733869a00ff18691987f20c8f784c1f87
Подписка на обновления:

Торренты, похожие на Гемини Gemini Man скачать торрент

Форум Название Автор Размер S L Добавлен
Зарубежные фильмы 2016-2018 (Новинки зарубежного кино) ·%· Гемини / Gemini Man (2019) WEBRip | Line Galfimbul 783695872747 MB 0 0 1574613014

19:30

24-Ноя-19

Зарубежные фильмы 2016-2018 (Новинки зарубежного кино) ·%· Гемини / Gemini Man (2019) WEBRip 1080p | Line Galfimbul 51922062854.84 GB 0 0 1574284811

00:20

21-Ноя-19

Еще никто не оставлял запись к записи скачать торрент Гемини Gemini Man . Будь первым!

!Обратная связь