Скачать через торрент Ибица Ibiza Фильм бесплатно в хорошем качестве torrent

Скачивайте на UnionPeer.org фильмы через торрент без регистрации. Новинки кино в хорошем качестве через торрент. На UnionPeer.org можно скачать через торрент фильмы 2014 и 2015 годов. Самые новые фильмы.

Скачать торрент Ибица Ibiza бесплатно через .torrent фильм мультфильм сериал

Статистика раздачи
Размер:  1.33 GB   |    Зарегистрирован:  12 дней   |    .torrent скачан:  13 раз   |   
Раздают:  2  
 

Скачать Ибица / Ibiza (2019) BDRip-AVC от OlLanDGroup | iTunes через torrent

 
загрузка...
 
Автор Сообщение

Galfimbul

avatar Galfimbul


Ибица / Ibiza
«Не ошибись с местом отдыха!»


Год выпуска: 2019
Страна: Франция, Бельгия
Производство: Atelier de Production, Gaumont, France 2 Cin?ma
Жанр: Комедия

Режиссёр: Арно Лемор
В ролях: Кристиан Клавье, Халид Самата, Матильда Сенье, Леопольд Бухсбаум, Пили Груан, Джои Старр, Оливье Маршаль, Фредерик Бель, Луи-До де Ланкесэ, Виктор Уэртас

Перевод: Дублированный | [iTunes]
Субтитры: Нет
Реклама: Отсутствует

Описание: Консервативный доктор-ортопед Филипп пытается расположить к себе двух детей-подростков своей новой возлюбленной. Он решает провести вместе с ними семейный отпуск у моря, и молодежь выбирает Ибицу, где любителю тихого отдыха придется непросто.



Качество: BDRip-AVC | BDRemux | Ibiza.2019.BDREMUX.1080p.seleZen
Продолжительность: 01:26:01

Формат: MKV
Видео кодек: MPEG-4 AVC
Аудио кодек: AC3
Видео: 1024x428 (2.40:1), 24,000 fps, x264 ~1 829 kbps avg, 0.174 bit/pixel
Аудио: 48 kHz, AC3 Dolby Digital, 3/2 (L,C,R,l,r) + LFE ch, ~384.00 kbps avg | RUS (iTunes)

Дата премьеры (мир): 2 июля 2019
Дата премьеры (РФ): 4 июля 2019, «MEGOGO Distribution»
Цифровой релиз:
Общее
Уникальный идентификатор : 49677492477028636293891320326848522846 (0x255F897AF3DEF8B233413B7FF5D82A5E)
Полное имя : F:OlLanDGroupIbiza.2019.BDRip(AVC).OlLanDGroup.mkv
Формат : Matroska
Версия формата : Version 4 / Version 2
Размер файла : 1,33 Гбайт
Продолжительность : 1 ч. 26 м.
Общий поток : 2214 Кбит/сек
Название фильма : Ibiza 2019 #TorpedoUK#
Дата кодирования : UTC 2019-12-02 01:46:29
Программа кодирования : mkvmerge v29.0.0 ('Like It Or Not') 64-bit
Библиотека кодирования : libebml v1.3.6 + libmatroska v1.4.9

Видео
Идентификатор : 1
Формат : AVC
Формат/Информация : Advanced Video Codec
Профиль формата : High@L4.1
Параметр CABAC формата : Да
Параметр ReFrames формата : 10 кадров
Идентификатор кодека : V_MPEG4/ISO/AVC
Продолжительность : 1 ч. 26 м.
Битрейт : 1829 Кбит/сек
Ширина : 1024 пикселя
Высота : 428 пикселей
Соотношение сторон : 2,40:1
Режим частоты кадров : Постоянный
Частота кадров : 24,000 кадра/сек
Цветовое пространство : YUV
Субдискретизация насыщенности : 4:2:0
Битовая глубина : 8 бит
Тип развёртки : Прогрессивная
Бит/(Пиксели*Кадры) : 0.174
Размер потока : 1,10 Гбайт (83%)
Библиотека кодирования : x264 core 146 r2538 121396c
Настройки программы : cabac=1 / ref=10 / deblock=1:-3:-3 / analyse=0x3:0x113 / me=umh / subme=11 / psy=1 / psy_rd=1.00:0.03 / mixed_ref=1 / me_range=48 / chroma_me=1 / trellis=2 / 8x8dct=1 / cqm=0 / deadzone=21,11 / fast_pskip=1 / chroma_qp_offset=-6 / threads=6 / lookahead_threads=1 / sliced_threads=0 / nr=0 / decimate=1 / interlaced=0 / bluray_compat=0 / constrained_intra=0 / bframes=11 / b_pyramid=2 / b_adapt=2 / b_bias=0 / direct=3 / weightb=1 / open_gop=0 / weightp=2 / keyint=240 / keyint_min=24 / scenecut=40 / intra_refresh=0 / rc_lookahead=40 / rc=2pass / mbtree=0 / bitrate=1829 / ratetol=1.0 / qcomp=0.60 / qpmin=0 / qpmax=69 / qpstep=4 / cplxblur=20.0 / qblur=0.5 / vbv_maxrate=50000 / vbv_bufsize=62500 / nal_hrd=none / filler=0 / ip_ratio=1.40 / pb_ratio=1.30 / aq=1:1.00
Язык : English
Default : Да
Forced : Нет

Аудио
Идентификатор : 2
Формат : AC-3
Формат/Информация : Audio Coding 3
Расширение режима : CM (complete main)
Параметр Endianness формата : Big
Идентификатор кодека : A_AC3
Продолжительность : 1 ч. 26 м.
Вид битрейта : Постоянный
Битрейт : 384 Кбит/сек
Каналы : 6 каналов
Расположение каналов : Front: L C R, Side: L R, LFE
Частота : 48,0 КГц
Частота кадров : 31,250 кадров/сек (1536 spf)
Битовая глубина : 16 бит
Метод сжатия : С потерями
Размер потока : 236 Мбайт (17%)
Заголовок : DUB [iTunes]
Язык : Russian
Default : Да
Forced : Нет

Меню
00:00:00.000 : en:Глава 01
00:06:39.792 : en:Глава 02
00:14:23.958 : en:Глава 03
00:20:40.958 : en:Глава 04
00:26:57.042 : en:Глава 05
00:32:19.625 : en:Глава 06
00:39:51.292 : en:Глава 07
00:47:00.292 : en:Глава 08
00:54:41.000 : en:Глава 09
01:01:33.500 : en:Глава 10
01:09:16.250 : en:Глава 11
01:16:26.500 : en:Глава 12
Источник http://BlaTor.org

Трекер:  [ 02-Дек-2019 16:10 ]

  

Скачать .torrent

Размер .torrent файла 13 KB


Размер: 1.33 GB
Хэш (hash) релиза: f577e4299d31c2358cd13014b328e1948b0d593b
Подписка на обновления:

Торренты, похожие на Ибица Ibiza скачать торрент

Форум Название Автор Размер S L Добавлен
Зарубежные фильмы 2016-2018 (Новинки зарубежного кино) ·%· Ибица / Ibiza (2019) BDRip 720p | iTunes Galfimbul 42473391183.96 GB 2 0 1575657023

21:30

6-Дек-19

Зарубежные фильмы 2016-2018 (Новинки зарубежного кино) ·%· Ибица / Ibiza (2019) BDRip от Twister & ExKinoRay | iTunes Galfimbul 15278857121.42 GB 2 0 1575403212

23:00

3-Дек-19

Зарубежные фильмы 2016-2018 (Новинки зарубежного кино) ·%· Ибица / Ibiza (2019) BDRip | iTunes Galfimbul 785520640749 MB 0 0 1575315012

22:30

2-Дек-19

Зарубежные фильмы 2016-2018 (Новинки зарубежного кино) ·%· Ибица / Ibiza (2019) BDRip-AVC от OlLanDGroup | iTunes Galfimbul 782172279746 MB 0 0 1575289820

15:30

2-Дек-19

Зарубежные фильмы 2016-2018 (Новинки зарубежного кино) ·%· Ибица / Ibiza (2019) BDRip-AVC от ExKinoRay | iTunes Galfimbul 24735506302.3 GB 0 0 1575182409

09:40

1-Дек-19

Зарубежные фильмы 2016-2018 (Новинки зарубежного кино) ·%· Ибица / Ibiza (2019) BDRip 1080p от селезень | iTunes Galfimbul 82512641597.68 GB 0 0 1575132624

19:50

30-Ноя-19

Зарубежные фильмы 2016-2018 (Новинки зарубежного кино) ·%· Ибица / Ibiza (2019) BDRip от MegaPeer | iTunes Galfimbul 15272079361.42 GB 0 0 1575122413

17:00

30-Ноя-19

Зарубежные фильмы 2016-2018 (Новинки зарубежного кино) ·%· Ибица / Ibiza (2019) BDRemux 1080p от селезень | iTunes Galfimbul 2256564596321.02 GB 0 0 1575117031

15:30

30-Ноя-19

Зарубежные фильмы 2016-2018 (Новинки зарубежного кино) ·%· Ибица / Ibiza (2019) WEB-DLRip-AVC | iTunes Galfimbul 16520981561.54 GB 1 1 1573577414

19:50

12-Ноя-19

Зарубежные фильмы 2016-2018 (Новинки зарубежного кино) ·%· Ибица / Ibiza (2019) WEB-DLRip-AVC | iTunes Galfimbul 740579247706 MB 0 0 1573205414

12:30

8-Ноя-19

Зарубежные фильмы 2016-2018 (Новинки зарубежного кино) ·%· Ибица / Ibiza (2019) WEB-DLRip от Portablius | iTunes Galfimbul 784861184749 MB 0 0 1573203012

11:50

8-Ноя-19

Зарубежные фильмы 2016-2018 (Новинки зарубежного кино) ·%· Ибица / Ibiza (2019) WEB-DLRip | iTunes Galfimbul 15645450241.46 GB 0 0 1573118414

12:20

7-Ноя-19

Зарубежные фильмы 2016-2018 (Новинки зарубежного кино) ·%· Ибица / Ibiza (2019) WEB-DLRip | iTunes Galfimbul 14623370781.36 GB 0 0 1573116013

11:40

7-Ноя-19

Зарубежные фильмы 2016-2018 (Новинки зарубежного кино) ·%· Ибица / Ibiza (2018) WEB-DL 1080p | iTunes Galfimbul 32745439483.05 GB 0 0 1573110014

10:00

7-Ноя-19

Зарубежные фильмы 2016-2018 (Новинки зарубежного кино) ·· Ибица / Ibiza (Алекс Ричанбах) [2018, Мелодрама, комедия, WEB-DLRip] HDrezka Studio Galfimbul 15684280321.46 GB 0 0 1528127484

18:51

4-Июн-18

Документальные фильмы и телепередачи ·· Западная Ибица / Ibiza Occident (Гюнтер Швайгер / Günter Schwaiger) [2011, Документальный фильм, SATRip] Galfimbul 609595392581 MB 0 0 1429364054

16:34

18-Апр-15

Зарубежные фильмы 2016-2018 (Новинки зарубежного кино) ·· Любовь и секс на Ибице / Verliefd op Ibiza (Йохан Нийенхейс) [2013, комедия, мелодрама, BDRemux 1080i] Galfimbul 1561073616014.54 GB 0 0 1518082219

12:30

8-Фев-18

Зарубежные фильмы 2016-2018 (Новинки зарубежного кино) ·· Ибица живых мертвецов / Ibiza Undead (Энди Эдвардс) [2016, ужасы, комедия, WEB-DLRip] Galfimbul 14676336641.37 GB 0 0 1502965213

13:20

17-Авг-17

Развлекательные телепередачи и шоу ·· "Исследуя мир": Ибица, Форментера - Праздник чувств / Ibiza, Formentera - La fete des sens (Пьер Бровэрс / Pierre Brouwers) [2009, Путешествия и туризм, HDTVRip] Galfimbul 41183626243.84 GB 0 0 1448025746

16:22

20-Ноя-15

Еще никто не оставлял запись к записи скачать торрент Ибица Ibiza . Будь первым!

!Обратная связь