Скачать через торрент Куда ты пропала, Бернадетт? Where'd You Go, Bernadette Фильм бесплатно в хорошем качестве torrent

Скачивайте на UnionPeer.org фильмы через торрент без регистрации. Новинки кино в хорошем качестве через торрент. На UnionPeer.org можно скачать через торрент фильмы 2014 и 2015 годов. Самые новые фильмы.

Скачать торрент Куда ты пропала, Бернадетт? Where'd You Go, Bernadette бесплатно через .torrent фильм мультфильм сериал

Статистика раздачи
Размер:  1.86 GB   |    Зарегистрирован:  13 дней   |    .torrent скачан:  17 раз   |   
Раздают:  1  
 

Скачать Куда ты пропала, Бернадетт? / Where'd You Go, Bernadette (2019) BDRip-AVC от OlLanDGroup | iTunes через torrent

 
загрузка...
 
Автор Сообщение

Galfimbul

avatar Galfimbul


Куда ты пропала, Бернадетт? / Where'd You Go, Bernadette
«Her Mystery, Their Journey, Our Adventure»


Год выпуска: 2019
Страна: США
Производство: Annapurna Pictures, Color Force
Жанр: Драма, комедия, детектив

Режиссёр: Ричард Линклейтер
В ролях: Кейт Бланшетт, Джуди Грир, Кристен Уиг, Тройэн Эвери Беллисарио, Билли Крадап, Лоуренс Фишборн, Стив Зан, Меган Маллалли, Клаудия Дурмит, Йоуханнес Хёйкьюр Йоуханнессон

Перевод: Дублированный | [iTunes]
Субтитры: Русские (полные)
Реклама: Отсутствует

Описание: У Бернадетт, очаровательной женщины и талантливого архитектора, есть всё: прекрасный дом, замечательная дочь, успешный и любящий муж. Хоть она и выбивается из «безупречной» компании соседских мамаш, никто не мог представить, что в один прекрасный день Бернадетт просто исчезнет без следа. Она отправляется на поиски себя, пытаясь обрести счастье на краю света.



Качество: BDRip-AVC | BDRemux | Whered.You.Go.Bernadette.2019.BDREMUX.1080p.seleZen
Продолжительность: 01:48:58

Формат: MKV
Видео кодек: MPEG-4 AVC
Аудио кодек: AC3
Видео: 1024x554 (1.85:1), 23,976 fps, x264 ~2 056 kbps avg, 0.151 bit/pixel
Аудио: 48 kHz, AC3 Dolby Digital, 3/2 (L,C,R,l,r) + LFE ch, ~384.00 kbps avg | RUS (iTunes)

Дата премьеры (мир): 16 августа 2019
Дата премьеры (РФ): 5 сентября 2019, «Вольга»
Цифровой релиз: 19 ноября 2019, «Вольга»
Общее
Уникальный идентификатор : 43203962007872628322917734745375086413 (0x2080C7C94235D0F06DAB083B6465974D)
Полное имя : F:OlLanDGroupWhered.You.Go.Bernadette.2019.BDRip(AVC).OllanDGroup.mkv
Формат : Matroska
Версия формата : Version 4 / Version 2
Размер файла : 1,86 Гбайт
Продолжительность : 1 ч. 48 м.
Общий поток : 2439 Кбит/сек
Название фильма : Whered You Go Bernadette 2019 #TorpedoUK#
Дата кодирования : UTC 2019-12-02 13:17:15
Программа кодирования : mkvmerge v29.0.0 ('Like It Or Not') 64-bit
Библиотека кодирования : libebml v1.3.6 + libmatroska v1.4.9

Видео
Идентификатор : 1
Формат : AVC
Формат/Информация : Advanced Video Codec
Профиль формата : High@L4.1
Параметр CABAC формата : Да
Параметр ReFrames формата : 10 кадров
Идентификатор кодека : V_MPEG4/ISO/AVC
Продолжительность : 1 ч. 48 м.
Битрейт : 2056 Кбит/сек
Ширина : 1024 пикселя
Высота : 554 пикселя
Соотношение сторон : 1,85:1
Режим частоты кадров : Постоянный
Частота кадров : 23,976 (24000/1001) кадра/сек
Цветовое пространство : YUV
Субдискретизация насыщенности : 4:2:0
Битовая глубина : 8 бит
Тип развёртки : Прогрессивная
Бит/(Пиксели*Кадры) : 0.151
Размер потока : 1,56 Гбайт (84%)
Библиотека кодирования : x264 core 146 r2538 121396c
Настройки программы : cabac=1 / ref=10 / deblock=1:-2:-3 / analyse=0x3:0x113 / me=umh / subme=11 / psy=1 / psy_rd=0.90:0.10 / mixed_ref=1 / me_range=48 / chroma_me=1 / trellis=2 / 8x8dct=1 / cqm=0 / deadzone=21,11 / fast_pskip=1 / chroma_qp_offset=-6 / threads=6 / lookahead_threads=1 / sliced_threads=0 / nr=0 / decimate=1 / interlaced=0 / bluray_compat=0 / constrained_intra=0 / bframes=11 / b_pyramid=2 / b_adapt=2 / b_bias=0 / direct=3 / weightb=1 / open_gop=0 / weightp=2 / keyint=240 / keyint_min=23 / scenecut=40 / intra_refresh=0 / rc_lookahead=40 / rc=2pass / mbtree=0 / bitrate=2056 / ratetol=1.0 / qcomp=0.60 / qpmin=0 / qpmax=69 / qpstep=4 / cplxblur=20.0 / qblur=0.5 / vbv_maxrate=50000 / vbv_bufsize=62500 / nal_hrd=none / filler=0 / ip_ratio=1.40 / pb_ratio=1.30 / aq=1:1.00
Язык : English
Default : Да
Forced : Нет

Аудио
Идентификатор : 2
Формат : AC-3
Формат/Информация : Audio Coding 3
Расширение режима : CM (complete main)
Параметр Endianness формата : Big
Идентификатор кодека : A_AC3
Продолжительность : 1 ч. 48 м.
Вид битрейта : Постоянный
Битрейт : 384 Кбит/сек
Каналы : 6 каналов
Расположение каналов : Front: L C R, Side: L R, LFE
Частота : 48,0 КГц
Частота кадров : 31,250 кадров/сек (1536 spf)
Битовая глубина : 16 бит
Метод сжатия : С потерями
Размер потока : 299 Мбайт (16%)
Заголовок : DUB [iTunes]
Язык : Russian
Default : Да
Forced : Нет

Текст
Идентификатор : 3
Формат : UTF-8
Идентификатор кодека : S_TEXT/UTF8
Идентификатор кодека/Информация : UTF-8 Plain Text
Продолжительность : 1 ч. 47 м.
Битрейт : 124 бит/сек
Count of elements : 1509
Размер потока : 98,4 Кбайт (0%)
Заголовок : Full
Язык : Russian
Default : Нет
Forced : Нет

Меню
00:00:00.000 : en:Chapter 01
00:03:40.095 : en:Chapter 02
00:09:04.252 : en:Chapter 03
00:13:41.070 : en:Chapter 04
00:17:00.394 : en:Chapter 05
00:20:58.257 : en:Chapter 06
00:27:03.622 : en:Chapter 07
00:32:39.499 : en:Chapter 08
00:39:39.919 : en:Chapter 09
00:43:08.961 : en:Chapter 10
00:47:50.701 : en:Chapter 11
00:52:33.692 : en:Chapter 12
00:56:18.041 : en:Chapter 13
01:00:57.529 : en:Chapter 14
01:05:12.075 : en:Chapter 15
01:08:07.959 : en:Chapter 16
01:13:25.735 : en:Chapter 17
01:16:47.186 : en:Chapter 18
01:22:26.525 : en:Chapter 19
01:27:00.924 : en:Chapter 20
01:30:45.607 : en:Chapter 21
01:33:38.029 : en:Chapter 22
01:35:46.074 : en:Chapter 23
01:40:24.518 : en:Chapter 24
Источник http://BlaTor.org

Трекер:  [ 02-Дек-2019 16:50 ]

  

Скачать .torrent

Размер .torrent файла 19 KB


Размер: 1.86 GB
Хэш (hash) релиза: 25e693289c1c70004515b4de5f823cfcec9223f4
Подписка на обновления:

Торренты, похожие на Куда ты пропала, Бернадетт? Where'd You Go, Bernadette скачать торрент

Форум Название Автор Размер S L Добавлен
Зарубежные фильмы 2016-2018 (Новинки зарубежного кино) ·%· Куда ты пропала, Бернадетт? / Where'd You Go, Bernadette (2019) BDRip 720p от ExKinoRay | iTunes Galfimbul 57601596265.36 GB 0 0 1574861423

16:30

27-Ноя-19

Зарубежные фильмы 2016-2018 (Новинки зарубежного кино) ·%· Куда ты пропала, Бернадетт? / Where'd You Go, Bernadette (2019) BDRemux 1080p от селезень | iTunes Galfimbul 3128727624229.14 GB 0 0 1574806814

01:20

27-Ноя-19

Зарубежные фильмы 2016-2018 (Новинки зарубежного кино) ·%· Куда ты пропала, Бернадетт? / Where'd You Go, Bernadette (2019) WEB-DLRip от Scarabey | iTunes Galfimbul 15520276481.45 GB 0 0 1574528416

20:00

23-Ноя-19

Зарубежные фильмы 2016-2018 (Новинки зарубежного кино) ·%· Куда ты пропала, Бернадетт? / Where'd You Go, Bernadette (2019) WEB-DLRip от Portablius | iTunes Galfimbul 785494016749 MB 0 0 1574184610

20:30

19-Ноя-19

Зарубежные фильмы 2016-2018 (Новинки зарубежного кино) ·%· Куда ты пропала, Бернадетт? / Where'd You Go, Bernadette (2019) WEB-DLRip-AVC | iTunes Galfimbul 15578633601.45 GB 2 0 1574170210

16:30

19-Ноя-19

Зарубежные фильмы 2016-2018 (Новинки зарубежного кино) ·%· Куда ты пропала, Бернадетт? / Where'd You Go, Bernadette (2019) WEB-DLRip | КПК | iTunes Galfimbul 503622644480 MB 0 0 1574154009

12:00

19-Ноя-19

Зарубежные фильмы 2016-2018 (Новинки зарубежного кино) ·%· Куда ты пропала, Бернадетт? / Where'd You Go, Bernadette (2019) WEB-DLRip-AVC | iTunes Galfimbul 781168289745 MB 0 0 1574149212

10:40

19-Ноя-19

Зарубежные фильмы 2016-2018 (Новинки зарубежного кино) ·%· Куда ты пропала, Бернадетт? / Where'd You Go, Bernadette (2019) WEB-DLRip от MegaPeer | iTunes Galfimbul 15686758401.46 GB 0 0 1574110816

00:00

19-Ноя-19

Зарубежные фильмы 2016-2018 (Новинки зарубежного кино) ·%· Куда ты пропала, Бернадетт? / Where'd You Go, Bernadette (2019) WEB-DL 1080p от селезень | iTunes Galfimbul 47835234924.46 GB 0 0 1574108413

23:20

18-Ноя-19

Еще никто не оставлял запись к записи скачать торрент Куда ты пропала, Бернадетт? Where'd You Go, Bernadette . Будь первым!

!Обратная связь