Скачать через торрент Они ползут за тобой Them That Follow Фильм бесплатно в хорошем качестве torrent

Скачивайте на UnionPeer.org фильмы через торрент без регистрации. Новинки кино в хорошем качестве через торрент. На UnionPeer.org можно скачать через торрент фильмы 2014 и 2015 годов. Самые новые фильмы.

Скачать торрент Они ползут за тобой Them That Follow бесплатно через .torrent фильм мультфильм сериал

Статистика раздачи
Размер:  745 MB   |    Зарегистрирован:  12 дней   |    .torrent скачан:  15 раз   |   
Раздают:  1  
 

Скачать Они ползут за тобой / Them That Follow (2019) WEB-DLRip-AVC от ExKinoRay | iTunes через torrent

 
загрузка...
 
Автор Сообщение

Galfimbul

avatar Galfimbul


Название: Они ползут за тобой
Оригинальное название: Them That Follow
Год выпуска: 2019
Жанр: Триллер
Режиссер: Бриттани Поултон, Дэн Мэдисон Сэвидж
В ролях: Кейтлин Девер, Уолтон Гоггинс, Оливия Колман, Томас Манн, Джим Гэффиган, Льюис Пуллман, Элис Энглерт, Доминик Кансельер, Брэдли Галло, Энни Тедеско

О фильме:
Главная героиня - дочь пастора. Их община живет обособленной жизнью где-то в глубине скалистых Аппалачей. Нравы в этой общине очень строгие и все её члены должны жить по предписанным законам. Но главная героиня - молода, непокорна и хочет для себя иную жизнь. Девушка поддалась чувствам и завязала отношения, которые точно подвергнутся порицанию своего жесткого отца и общины в целом. Теперь девушке грозит не только позор, но и смерть.



Страна: США
Студия: Amasia Entertainment, G-BASE
Продолжительность: 01:37:59
Перевод: Профессиональный (многоголосый, закадровый) | iTunes

Файл
Формат: MKV
Качество: WEB-DLRip-AVC
Видео: MPEG-4 AVC, 792x336, - 987 Кбит/с
Аудио: AAC-HE, 2 ch, - 76 Кбит/с
Субтитры: Русские (Full), английские
Общее
Уникальный идентификатор : 171009861521939105371677385045533331393 (0x80A74D22973606D62E39E214FFB90FC1)
Полное имя : D:MOVIESThem.That.Follow.2019.WEB-DLRip-AVC.ExKinoRay.mkv
Формат : Matroska
Версия формата : Version 4 / Version 2
Размер файла : 745 Мбайт
Продолжительность : 1 ч. 37 м.
Общий поток : 1063 Кбит/сек
Дата кодирования : UTC 2019-12-02 16:11:14
Программа кодирования : mkvmerge v35.0.0 ('All The Love In The World') 64-bit
Библиотека кодирования : libebml v1.3.9 + libmatroska v1.5.2

Видео
Идентификатор : 1
Формат : AVC
Формат/Информация : Advanced Video Codec
Профиль формата : High@L4.1
Параметр CABAC формата : Да
Параметр RefFrames формата : 12 кадров
Идентификатор кодека : V_MPEG4/ISO/AVC
Продолжительность : 1 ч. 37 м.
Битрейт : 987 Кбит/сек
Ширина : 792 пикселя
Высота : 336 пикселей
Соотношение сторон : 2,35:1
Режим частоты кадров : Постоянный
Частота кадров : 23,976 (24000/1001) кадра/сек
Цветовое пространство : YUV
Субдискретизация насыщенности : 4:2:0
Битовая глубина : 8 бит
Тип развёртки : Прогрессивная
Бит/(Пиксели*Кадры) : 0.155
Размер потока : 691 Мбайт (93%)
Библиотека кодирования : x264 core 152 r2851kMod ba24899
Настройки программы : cabac=1 / ref=12 / deblock=1:-3:-2 / analyse=0x3:0x133 / me=umh / subme=10 / psy=1 / fade_compensate=0.00 / psy_rd=1.00:0.14 / mixed_ref=1 / me_range=32 / chroma_me=1 / trellis=2 / 8x8dct=1 / cqm=0 / deadzone=21,11 / fast_pskip=0 / chroma_qp_offset=-3 / threads=6 / lookahead_threads=1 / sliced_threads=0 / nr=0 / decimate=0 / interlaced=0 / bluray_compat=0 / constrained_intra=0 / bframes=12 / b_pyramid=2 / b_adapt=2 / b_bias=0 / direct=3 / weightb=1 / open_gop=0 / weightp=2 / keyint=240 / keyint_min=24 / scenecut=40 / intra_refresh=0 / rc_lookahead=40 / rc=2pass / mbtree=1 / bitrate=987 / ratetol=1.0 / qcomp=0.60 / qpmin=0 / qpmax=69 / qpstep=4 / cplxblur=20.0 / qblur=0.5 / ip_ratio=1.40 / aq=3:1.00
Default : Да
Forced : Нет

Аудио
Идентификатор : 2
Формат : AAC
Формат/Информация : Advanced Audio Codec
Профиль формата : HE-AAC / LC
Идентификатор кодека : A_AAC
Продолжительность : 1 ч. 37 м.
Битрейт : 76,0 Кбит/сек
Каналы : 2 канала
Расположение каналов : Front: L R
Частота : 48,0 КГц / 24,0 КГц
Частота кадров : 23,438 кадра/сек (1024 SPF)
Метод сжатия : С потерями
Задержка видео : 31 мс.
Размер потока : 53,3 Мбайт (7%)
Язык : Russian
Default : Да
Forced : Нет

Текст #1
Идентификатор : 3
Формат : UTF-8
Идентификатор кодека : S_TEXT/UTF8
Идентификатор кодека/Информация : UTF-8 Plain Text
Продолжительность : 1 ч. 32 м.
Битрейт : 49 бит/сек
ElementCount : 766
Размер потока : 33,9 Кбайт (0%)
Заголовок : Full
Язык : Russian
Default : Нет
Forced : Нет

Текст #2
Идентификатор : 4
Формат : UTF-8
Идентификатор кодека : S_TEXT/UTF8
Идентификатор кодека/Информация : UTF-8 Plain Text
Продолжительность : 1 ч. 30 м.
Битрейт : 33 бит/сек
ElementCount : 753
Размер потока : 21,8 Кбайт (0%)
Заголовок : Full
Язык : English
Default : Нет
Forced : Нет
Источник http://BlaTor.org

Трекер:  [ 02-Дек-2019 19:50 ]

  

Скачать .torrent

Размер .torrent файла 15 KB


Размер: 745 MB
Хэш (hash) релиза: d7085e5d63bb061046b997c022dc77247c5bcac4
Подписка на обновления:

Еще никто не оставлял запись к записи скачать торрент Они ползут за тобой Them That Follow . Будь первым!

!Обратная связь