Скачать через торрент Последний убийца драконов The Last Dragonslayer Фильм бесплатно в хорошем качестве torrent

Скачивайте на UnionPeer.org фильмы через торрент без регистрации. Новинки кино в хорошем качестве через торрент. На UnionPeer.org можно скачать через торрент фильмы 2014 и 2015 годов. Самые новые фильмы.

Скачать торрент Последний убийца драконов The Last Dragonslayer бесплатно через .torrent фильм мультфильм сериал

Статистика раздачи
Размер:  3.65 GB   |    Зарегистрирован:  4 года 2 месяца   |    .torrent скачан:  57 раз   |   
Раздают:  1  
 

Скачать Последний убийца драконов / The Last Dragonslayer (2016) WEB-DL 1080p | P через torrent

 
 
Автор Сообщение

Galfimbul

avatar Galfimbul


Последний убийца драконов /The Last Dragonslayer

Год выхода: 2016
Жанр: Фэнтези, комедия, приключения
Режиссер: Джейми Магнус Стоун
В ролях: Адиль Ахтар, Мэтт Берри, Даниэль Бьелич, Джон Брэдли, Эндрю Бачан, Джилл Бьюкэнэн, Фиби Кэмпбелл, Колин Майкл Кармайкл, Элизабет Чан, Анна Чэнселлор, Эллиз Шаппелль, Бернард Коллако, Полин Коллинз, Амелия Крауч, Сара Кроуден

О фильме:
В старые добрые времена магия была необходима — она могла сохранить королевство и прочистить забившуюся канализацию. Но теперь магия исчезает: сливной фильтр дешевле, чем заклинание, а волшебные ковры используются для доставки пиццы. Пятнадцатилетняя сирота Дженнифер Стрейндж работает в «Казаме», агентстве по найму волшебников, но в дни, когда магия выдыхается, всё труднее оставаться на плаву. А потом начинаются видения, предсказывающие смерть последнего дракона мира от рук неизвестного Убийцы драконов. Если видения окажутся правдой, то для «Казама» и Дженнифер всё изменится навсегда.



Страна: Великобритания
Студия: Blueprint Pictures
Продолжительность: 01:40:42
Перевод: Профессиональный многоголосый | ТВ3

Файл
Кодек: AVC
Качество: WEB-DL 1080p | The.Last.Dragonslayer.2016.1080p.WEB-DL.DD2.0.H264-FGT
Видео: MPEG-4 AVC, 4803 Kбит/с, 1920x1080, 25.000 кадр/с
Видео, Звук: ? Без Рекламы!
Аудио #1: Русский (АС3, 2 ch, 192 Кбит/с, 48.0 KHz) Профессиональный (многоголосый, закадровый) ТВ3
Аудио #2: Английский (АС3, 2 ch, 192 Кбит/с, 48.0 KHz)
Субтитры: английские
Трейлер
Источник: The.Last.Dragonslayer.2016.1080p.WEB-DL.DD2.0.H264-FGT
General
Unique ID : 172230914731926230005882430155371497092 (0x819277B4D6EB0466953C4060ACB6C684)
Complete name : The.Last.Dragonslayer.2016.WEB-DL.1080p.mkv
Format : Matroska
Format version : Version 4
File size : 3.65 GiB
Duration : 1 h 40 min
Overall bit rate mode : Variable
Overall bit rate : 5 189 kb/s
Encoded date : UTC 2019-12-02 19:41:26
Writing application : mkvmerge v7.1.0 ('Good Love') 64bit built on Jul 27 2014 13:06:55
Writing library : libebml v1.3.0 + libmatroska v1.4.1

Video
ID : 1
Format : AVC
Format/Info : Advanced Video Codec
Format profile : [email protected]
Format settings : CABAC / 2 Ref Frames
Format settings, CABAC : Yes
Format settings, Reference fra : 2 frames
Format settings, GOP : M=3, N=50
Codec ID : V_MPEG4/ISO/AVC
Duration : 1 h 40 min
Bit rate mode : Variable
Bit rate : 4 803 kb/s
Maximum bit rate : 7 200 kb/s
Width : 1 920 pixels
Height : 1 080 pixels
Display aspect ratio : 16:9
Frame rate mode : Constant
Frame rate : 25.000 FPS
Color space : YUV
Chroma subsampling : 4:2:0
Bit depth : 8 bits
Scan type : Progressive
Bits/(Pixel*Frame) : 0.093
Stream size : 3.38 GiB (93%)
Language : English
Default : Yes
Forced : No

Audio #1
ID : 2
Format : AC-3
Format/Info : Audio Coding 3
Commercial name : Dolby Digital
Codec ID : A_AC3
Duration : 1 h 40 min
Bit rate mode : Constant
Bit rate : 192 kb/s
Channel(s) : 2 channels
Channel layout : L R
Sampling rate : 48.0 kHz
Frame rate : 31.250 FPS (1536 SPF)
Compression mode : Lossy
Stream size : 138 MiB (4%)
Title : MVO | ТВ3
Language : Russian
Service kind : Complete Main
Default : Yes
Forced : No

Audio #2
ID : 3
Format : AC-3
Format/Info : Audio Coding 3
Commercial name : Dolby Digital
Codec ID : A_AC3
Duration : 1 h 40 min
Bit rate mode : Constant
Bit rate : 192 kb/s
Channel(s) : 2 channels
Channel layout : L R
Sampling rate : 48.0 kHz
Frame rate : 31.250 FPS (1536 SPF)
Compression mode : Lossy
Stream size : 138 MiB (4%)
Language : English
Service kind : Complete Main
Default : No
Forced : No

Text
ID : 4
Format : UTF-8
Codec ID : S_TEXT/UTF8
Codec ID/Info : UTF-8 Plain Text
Duration : 1 h 39 min
Bit rate : 62 b/s
Count of elements : 1397
Stream size : 45.1 KiB (0%)
Language : English
Default : No
Forced : No

Menu
00:00:00.000 : en:1
00:07:31.640 : en:2
00:16:33.800 : en:3
00:23:24.000 : en:4
00:32:06.760 : en:5
00:39:14.000 : en:6
00:47:24.000 : en:7
00:54:52.000 : en:8
01:02:46.000 : en:9
01:09:28.000 : en:10
01:17:58.000 : en:11
01:26:59.000 : en:12
Источник http://BlaTor.org

Внимание! AdBlock блокирует показ скриншотов, все вопросы к разработчикам )))
Трекер:  [ 08-Дек-2019 14:00 ]

  

Скачать .torrent

Размер .torrent файла 18 KB


Размер: 3.65 GB
Хэш (hash) релиза: a628d9434c1d33a2e116daec125c8efcc186e131
Подписка на обновления:

Торренты, похожие на Последний убийца драконов The Last Dragonslayer скачать торрент

Форум Название Автор Размер S L Добавлен
Зарубежные фильмы 2016-2019 (Новинки зарубежного кино) ·%· Последний убийца драконов / The Last Dragonslayer (2016) WEB-DLRip | ТВ3 Galfimbul 15629721601.46 GB 0 0 1542190921

13:22

14-Ноя-18

Зарубежные фильмы 2016-2019 (Новинки зарубежного кино) ·%· Последний убийца драконов / The Last Dragonslayer (2016) WEB-DLRip 1080p | LakeFilms Galfimbul 37767118533.52 GB 0 0 1539857532

13:12

18-Окт-18

Зарубежные фильмы 2016-2019 (Новинки зарубежного кино) ·%· Последний убийца драконов / The Last Dragonslayer (2016) WEB-DLRip 720p | LakeFilms Galfimbul 24054447312.24 GB 0 0 1539857502

13:11

18-Окт-18

Зарубежные фильмы 2016-2019 (Новинки зарубежного кино) ·%· Последний убийца драконов / The Last Dragonslayer (2016) WEB-DLRip | LakeFilms Galfimbul 18121645781.69 GB 0 0 1539857493

13:11

18-Окт-18

Зарубежные фильмы 2016-2019 (Новинки зарубежного кино) ·· Последний убийца драконов / The Last Dragonslayer (Джейми Магнус Стоун) [2016, фэнтези, комедия, приключения, HDTVRip] Galfimbul 14673756161.37 GB 0 0 1494962090

22:14

16-Май-17

Еще никто не оставлял запись к записи скачать торрент Последний убийца драконов The Last Dragonslayer . Будь первым!

!Обратная связь