Скачать через торрент Верность Фильм бесплатно в хорошем качестве torrent

Скачивайте на UnionPeer.org фильмы через торрент без регистрации. Новинки кино в хорошем качестве через торрент. На UnionPeer.org можно скачать через торрент фильмы 2014 и 2015 годов. Самые новые фильмы.

Скачать торрент Верность бесплатно через .torrent фильм мультфильм сериал

Статистика раздачи
Размер:  2.8 GB   |    Зарегистрирован:  1 месяц 9 дней   |    .torrent скачан:  334 раза   |   
Раздают:  3  
 

Скачать Верность (2019) WEBRip 1080p через torrent

 
загрузка...
 
Автор Сообщение

Galfimbul

avatar Galfimbul


Оригинальное название: Верность
Год выпуска: 2019
Жанр: Драма
Режиссер: Нигина Сайфуллаева
В ролях: Александр Паль, Евгения Громова, Алексей Агранович, Марина Васильева (II), Анна Котова-Дерябина, Павел Ворожцов, Елизавета Лотова, Анастасия Денисова, Кирилл Каганович

О фильме:
Лена — талантливый акушер-гинеколог, её муж Сережа — артист провинциального драмтеатра. Близость и нежность у них есть, секса — нет. Лена подозревает, что Сережа завёл роман на стороне, но она мучается молча и не выдаёт свою ревность. Вместо того чтобы выяснить отношения с мужем, Лена сама начинает изменять ему со случайными мужчинами. Она, конечно, не думала, что её параллельная жизнь окажется не менее подлинной, чем основная. И не менее реальной. И настолько опасной.


Выпущено: Россия, PREMIER Studios, Droog Drooga Films при поддержке Министерства культуры РФ
Продолжительность: 01:18:24
Язык: Русский
Субтитры: Нет

Файл
Качество: WEBRip 1080p
Видео: AVC/H.264, 1920x1080, ~5000 Kbps
Аудио: AC3, 2 ch, 192 Kbps

Версия 18+ [сцены сексуального характера].
General
Format : Matroska
Format version : Version 4
File size : 2.80 GiB
Duration : 1 h 18 min
Overall bit rate mode : Constant
Overall bit rate : 5 119 kb/s
Movie name : Vernost.2019.WEB-DL.(1080p).Getty
Encoded date : UTC 2019-12-15 23:08:53
Writing application : mkvmerge v7.8.0 ('River Man') 32bit built on Mar 27 2015 16:18:02
Writing library : libebml v1.3.1 + libmatroska v1.4.2

Video
ID : 1
Format : AVC
Format/Info : Advanced Video Codec
Format profile : Baseline@L4
Format settings : 4 Ref Frames
Format settings, CABAC : No
Format settings, Reference : 4 frames
Codec ID : V_MPEG4/ISO/AVC
Duration : 1 h 18 min
Bit rate mode : Constant
Bit rate : 5 000 kb/s
Width : 1 920 pixels
Height : 1 080 pixels
Display aspect ratio : 16:9
Frame rate mode : Constant
Frame rate : 25.000 FPS
Standard : PAL
Color space : YUV
Chroma subsampling : 4:2:0
Bit depth : 8 bits
Scan type : Progressive
Bits/(Pixel*Frame) : 0.096
Stream size : 2.70 GiB (96%)
Default : Yes
Forced : No
Color range : Limited
Color primaries : BT.709
Transfer characteristics : BT.709
Matrix coefficients : BT.709

Audio
ID : 2
Format : AC-3
Format/Info : Audio Coding 3
Commercial name : Dolby Digital
Codec ID : A_AC3
Duration : 1 h 18 min
Bit rate mode : Constant
Bit rate : 192 kb/s
Channel(s) : 2 channels
Channel layout : L R
Sampling rate : 48.0 kHz
Frame rate : 31.250 FPS (1536 SPF)
Compression mode : Lossy
Stream size : 108 MiB (4%)
Service kind : Complete Main
Default : Yes
Forced : No
Источник http://BlaTor.org

Трекер:  [ 16-Дек-2019 14:10 ]

  

Скачать .torrent

Размер .torrent файла 14 KB


Размер: 2.8 GB
Хэш (hash) релиза: 81f4b3a75373a91338958c74af8e3f403397b6f8
Подписка на обновления:

Торренты, похожие на Верность скачать торрент

Форум Название Автор Размер S L Добавлен
Российские фильмы 2016-2020 (Новинки русского кино) ·%· Верность (2019) WEBRip от Scarabey Galfimbul 12923310081.2 GB 0 0 1576775434

20:10

19-Дек-19

Российские фильмы 2016-2020 (Новинки русского кино) ·%· Верность (2019) WEBRip-AVC от ExKinoRay Galfimbul 781781343746 MB 0 0 1576732235

08:10

19-Дек-19

Российские фильмы 2016-2020 (Новинки русского кино) ·%· Верность (2019) WEBRip от Generalfilm | КПК Galfimbul 312291549298 MB 0 0 1576577412

13:10

17-Дек-19

Российские фильмы 2016-2020 (Новинки русского кино) ·%· Верность (2019) WEBRip от GeneralFilm Galfimbul 781422592745 MB 2 0 1576555820

07:10

17-Дек-19

Российские фильмы 2016-2020 (Новинки русского кино) ·%· Верность (2019) WEBRip 720p Galfimbul 21724867392.02 GB 2 0 1576519844

21:10

16-Дек-19

Российские фильмы 2016-2020 (Новинки русского кино) ·%· Верность (2019) WEBRip Galfimbul 11765002241.1 GB 2 0 1576470620

07:30

16-Дек-19

Зарубежные фильмы 2016-2020 (Новинки зарубежного кино) ·· Страсть и верность / Le Fidèle (Михаэль Р. Роскам / Michaël R. Roskam) [2017, Бельгия, Франция, Нидерланды, драма, криминал, HDRip] MVO Galfimbul 15677501441.46 GB 0 0 1518348623

14:30

11-Фев-18

Зарубежные фильмы 2016-2020 (Новинки зарубежного кино) ·· Страсть и верность / Le Fidèle (Жиль Паке-Бреннер) [2017 г., драма, криминал,WEB-DLRip] Galfimbul 23444973802.18 GB 0 0 1517332840

20:20

30-Янв-18

Зарубежные фильмы 2016-2020 (Новинки зарубежного кино) ·· Страсть и верность / Le Fidèle (Жиль Паке-Бреннер) [2017 г., драма, криминал, WEB-DLRip] Galfimbul 15683730241.46 GB 0 0 1517316610

15:50

30-Янв-18

Зарубежные фильмы 2016-2020 (Новинки зарубежного кино) ·· Страсть и верность / Le Fidèle (Жиль Паке-Бреннер) [2017 г., драма, криминал, WEB-DL 720p] MVO | Официальный Galfimbul 43999042094.1 GB 0 0 1513857338

14:55

21-Дек-17

Зарубежные фильмы 2016-2020 (Новинки зарубежного кино) ·· Страсть и верность / Le Fidèle (Жиль Паке-Бреннер) [2017 г., драма, криминал, BDRip] MVO [Официальный] | Без рекламы! Galfimbul 12110483501.13 GB 0 0 1513857337

14:55

21-Дек-17

Российские фильмы до 2016 ·· Испытание верности (Иван Пырьев) [1954, Мелодрама, DVD5] Galfimbul 36950855683.44 GB 0 0 1495989280

19:34

28-Май-17

Российские сериалы ·· Верность / Серии: 1-4 из 4 (Кира Ангелина) [2017, Мелодрама, HDTVRip] Galfimbul 29373460482.74 GB 0 0 1487495956

12:19

19-Фев-17

Зарубежные фильмы до 2016 ·· Моя честь называется верность. Лейбштандарт / My Honor Was Loyalty. Leibstandarte (Алессандро Пепе) [2015, Военный, драма, DVDRip] Galfimbul 15738719531.47 GB 0 0 1456728766

09:52

29-Фев-16

Зарубежные фильмы до 2016 ·· Моя честь называется верность / My Honor Was Loyalty (Алессандро Пепе / Alessandro Pepe) [2015, Германия, военный, драма, DVD9] VO (Lord32x) + Sub Rus + Original Ger Galfimbul 64024842245.96 GB 0 0 1456693687

00:08

29-Фев-16

Зарубежные фильмы до 2016 ·· Моя честь была верностью / My Honor Was Loyalty (Алессандро Пепе / Alessandro Pepe) [2015, Германия, военный, драма, DVD9] Sub Rus + Original Ger Galfimbul 60582850565.64 GB 0 0 1456294331

09:12

24-Фев-16

Документальные фильмы и телепередачи ·· Евгений Мартынов. Лебединая верность [1990, Документальный, музыка, поп, хроника, SATRip] Galfimbul 651659264621 MB 0 0 1426172881

18:08

12-Мар-15

Зарубежные фильмы до 2016 ·· Пояс верности / Chiavi in mano (Мариано Лоуренти / Mariano Laurenti) [1995, Италия, комедия, DVD5 (Custom)] DVO + VO (Переводичк не опознан) + Original Ita Galfimbul 46781153284.36 GB 0 0 1425082694

03:18

28-Фев-15

Зарубежные фильмы до 2016 ·· Клятва на верность / Yaadon Ki Kasam (Винод Деван / Vinod Dewan) [1985, Индия, Мелодрама, DVDRip] VO Galfimbul 22731018242.12 GB 0 0 1372323276

11:54

27-Июн-13

Еще никто не оставлял запись к записи скачать торрент Верность . Будь первым!

!Обратная связь