Скачать через торрент Гемини Gemini Man Фильм бесплатно в хорошем качестве torrent

Скачивайте на UnionPeer.org фильмы через торрент без регистрации. Новинки кино в хорошем качестве через торрент. На UnionPeer.org можно скачать через торрент фильмы 2014 и 2015 годов. Самые новые фильмы.

Скачать торрент Гемини Gemini Man бесплатно через .torrent фильм мультфильм сериал

Статистика раздачи
Размер:  4.71 GB   |    Зарегистрирован:  1 месяц 7 дней   |    .torrent скачан:  452 раза   |   
Раздают:  3  
 

Скачать Гемини / Gemini Man (2019) WEB-DL 1080p | D через torrent

 
загрузка...
 
Автор Сообщение

Galfimbul

avatar Galfimbul


Гемини /Gemini Man

Год выхода: 2019
Жанр: боевик, фантастика

Режиссер: Энг Ли

В ролях: Уилл Смит, Мэри Элизабет Уинстэд, Клайв Оуэн, Бенедикт Вонг, Дуглас Ходж, Ральф Браун, Линда Эмонд, Илья Волох, Э.Дж. Бонилья, Виктор Хьюго

О фильме: Первоклассный киллер Генри Броган становится мишенью таинственного оперативника, который, кажется, знает наперёд каждый его шаг



Страна: США, Китай
Продолжительность: 01:57:12
Перевод: Профессиональный (дублированный) | звук с онлайн-кинотеатра

Файл
Кодек: x.264
Качество: WEB-DL 1080p (Gemini.Man.2019.1080p.WEB-DL.DD5.1.H264-FGT)
Видео: AVC, 1920x1038 (1.85:1), 23.976 fps, 5 179 kb/s
Аудио 1: AC3, 48.0 kHz, 2 ch, 192 kb/s | RUS
Аудио 2: AC3, 48.0 kHz, 6 ch, 384 kb/s | ENG
Субтитры: английские

Сэмпл
General
Unique ID : 173283314090300199343034627907179708833 (0x825D2700352135DF8141147DFC1F01A1)
Complete name : Gemini.Man.2019.1080p.WEB-DL.1080p.mkv
Format : Matroska
Format version : Version 4
File size : 4.71 GiB
Duration : 1 h 57 min
Overall bit rate : 5 756 kb/s
Encoded date : UTC 2019-12-18 15:57:01
Writing application : mkvmerge v8.3.0 ('Over the Horizon') 64bit
Writing library : libebml v1.3.1 + libmatroska v1.4.2

Video
ID : 1
Format : AVC
Format/Info : Advanced Video Codec
Format profile : High@L4
Format settings : CABAC / 4 Ref Frames
Format settings, CABAC : Yes
Format settings, ReFrames : 4 frames
Codec ID : V_MPEG4/ISO/AVC
Duration : 1 h 57 min
Bit rate : 5 179 kb/s
Width : 1 920 pixels
Height : 1 038 pixels
Display aspect ratio : 1.85:1
Frame rate mode : Constant
Frame rate : 23.976 FPS
Color space : YUV
Chroma subsampling : 4:2:0
Bit depth : 8 bits
Scan type : Progressive
Bits/(Pixel*Frame) : 0.108
Stream size : 4.24 GiB (90%)
Language : English
Default : Yes
Forced : No
Color range : Limited
Color primaries : BT.709
Transfer characteristics : BT.709
Matrix coefficients : BT.709

Audio #1
ID : 2
Format : AC-3
Format/Info : Audio Coding 3
Commercial name : Dolby Digital
Codec ID : A_AC3
Duration : 1 h 57 min
Bit rate mode : Constant
Bit rate : 192 kb/s
Channel(s) : 2 channels
Channel layout : L R
Sampling rate : 48.0 kHz
Frame rate : 31.250 FPS (1536 SPF)
Bit depth : 16 bits
Compression mode : Lossy
Delay relative to video : -43 ms
Stream size : 161 MiB (3%)
Language : Russian
Default : Yes
Forced : No

Audio #2
ID : 3
Format : AC-3
Format/Info : Audio Coding 3
Commercial name : Dolby Digital
Codec ID : A_AC3
Duration : 1 h 57 min
Bit rate mode : Constant
Bit rate : 384 kb/s
Channel(s) : 6 channels
Channel layout : L R C LFE Ls Rs
Sampling rate : 48.0 kHz
Frame rate : 31.250 FPS (1536 SPF)
Bit depth : 16 bits
Compression mode : Lossy
Delay relative to video : -43 ms
Stream size : 321 MiB (7%)
Language : English
Default : No
Forced : No

Text
ID : 4
Format : UTF-8
Codec ID : S_TEXT/UTF8
Codec ID/Info : UTF-8 Plain Text
Duration : 1 h 45 min
Bit rate : 49 b/s
Count of elements : 1382
Stream size : 38.3 KiB (0%)
Language : English
Default : Yes
Forced : No
Источник http://BlaTor.org

Трекер:  [ 18-Дек-2019 19:10 ]

  

Скачать .torrent

Размер .torrent файла 94 KB


Размер: 4.71 GB
Хэш (hash) релиза: f39a3fdc6f507229bc14bef0eeab3ff78544125c
Подписка на обновления:

Торренты, похожие на Гемини Gemini Man скачать торрент

Форум Название Автор Размер S L Добавлен
Зарубежные фильмы 2016-2020 (Новинки зарубежного кино) ·%· Гемини / Gemini Man (2019) BDRip 720p от k.e.n & MegaPeer | D | iTunes Galfimbul 46390808454.32 GB 0 0 1578459615

08:00

8-Янв-20

Зарубежные фильмы 2016-2020 (Новинки зарубежного кино) ·%· Гемини / Gemini Man (2019) UHD BDRemux 2160p от BlueBird | 4K | HDR | Dolby Vision TV | 60 fps | iTunes Galfimbul 8456187020278.75 GB 0 0 1578408020

17:40

7-Янв-20

Зарубежные фильмы 2016-2020 (Новинки зарубежного кино) ·%· Гемини / Gemini Man (2019) UHD BDRemux 2160p от селезень | 4K | HDR | Dolby Vision | 60 fps | HFR | iTunes Galfimbul 8266735704276.99 GB 0 0 1578247825

21:10

5-Янв-20

Зарубежные фильмы 2016-2020 (Новинки зарубежного кино) ·%· Гемини / Gemini Man (2019) HDRip от Portablius | iTunes Galfimbul 834697216796 MB 0 0 1578230410

16:20

5-Янв-20

Зарубежные фильмы 2016-2020 (Новинки зарубежного кино) ·%· Гемини / Gemini Man (2019) BDRip-HEVC 1080p от HEVC-CLUB | iTunes Galfimbul 71650330266.67 GB 0 0 1578213609

11:40

5-Янв-20

Зарубежные фильмы 2016-2020 (Новинки зарубежного кино) ·%· Гемини / Gemini Man (2019) BDRip-AVC от ExKinoRay | iTunes Galfimbul 780274936744 MB 0 0 1578203413

08:50

5-Янв-20

Зарубежные фильмы 2016-2020 (Новинки зарубежного кино) ·%· Гемини / Gemini Man (2019) BDRip-AVC от ExKinoRay | iTunes Galfimbul 21654435872.02 GB 0 0 1578146412

17:00

4-Янв-20

Зарубежные фильмы 2016-2020 (Новинки зарубежного кино) ·%· Гемини / Gemini Man (2019) BDRip от Twister & ExKinoRay | iTunes Galfimbul 15174510881.41 GB 0 0 1578090615

01:30

4-Янв-20

Зарубежные фильмы 2016-2020 (Новинки зарубежного кино) ·%· Гемини / Gemini Man (2019) BDRip от Twister & ExKinoRay | iTunes Galfimbul 22882544862.13 GB 0 0 1578090609

01:30

4-Янв-20

Зарубежные фильмы 2016-2020 (Новинки зарубежного кино) ·%· Гемини / Gemini Man (2019) BDRemux 2160p | HDR | iTunes Galfimbul 7573958976770.54 GB 0 0 1578078009

22:00

3-Янв-20

Зарубежные фильмы 2016-2020 (Новинки зарубежного кино) ·%· Гемини / Gemini Man (2019) HDRip от Scarabey | iTunes Galfimbul 15531704321.45 GB 0 0 1578072014

20:20

3-Янв-20

Зарубежные фильмы 2016-2020 (Новинки зарубежного кино) ·%· Гемини / Gemini Man (2019) BDRip-AVC от OlLanDGroup | iTunes Galfimbul 14586397111.36 GB 2 0 1578055208

15:40

3-Янв-20

Зарубежные фильмы 2016-2020 (Новинки зарубежного кино) ·%· Гемини / Gemini Man (2019) BDRip 720p от селезень | iTunes Galfimbul 61659415895.74 GB 2 0 1577977815

18:10

2-Янв-20

Зарубежные фильмы 2016-2020 (Новинки зарубежного кино) ·%· Гемини / Gemini Man (2019) BDRip от MegaPeer | iTunes Galfimbul 22889591412.13 GB 0 0 1577974209

17:10

2-Янв-20

Зарубежные фильмы 2016-2020 (Новинки зарубежного кино) ·%· Гемини / Gemini Man (2019) BDRip 1080p от селезень | iTunes Galfimbul 1308090883412.18 GB 0 0 1577968208

15:30

2-Янв-20

Зарубежные фильмы 2016-2020 (Новинки зарубежного кино) ·%· Гемини / Gemini Man (2019) BDRemux 1080p от селезень | iTunes Galfimbul 2845464230326.5 GB 0 0 1577957412

12:30

2-Янв-20

Зарубежные фильмы 2016-2020 (Новинки зарубежного кино) ·%· Гемини / Gemini Man (2019) WEB-DL 1080p от Scarabey | iTunes Galfimbul 60284151795.61 GB 0 0 1577916630

01:10

2-Янв-20

Зарубежные фильмы 2016-2020 (Новинки зарубежного кино) ·%· Гемини / Gemini Man (2019) WEB-DLRip-AVC от OlLanDGroup | D Galfimbul 14570752201.36 GB 0 0 1576801812

03:30

20-Дек-19

Зарубежные фильмы 2016-2020 (Новинки зарубежного кино) ·%· Гемини / Gemini Man (2019) WEB-DLRip от MegaPeer | D Galfimbul 15682949121.46 GB 0 0 1576761611

16:20

19-Дек-19

Зарубежные фильмы 2016-2020 (Новинки зарубежного кино) ·%· Гемини / Gemini Man (2019) WEB-DLRip-AVC | D Galfimbul 10532488351004 MB 0 0 1576696225

22:10

18-Дек-19

Еще никто не оставлял запись к записи скачать торрент Гемини Gemini Man . Будь первым!

!Обратная связь