Скачать через торрент Семейка Аддамс The Addams Family Фильм бесплатно в хорошем качестве torrent

Скачивайте на UnionPeer.org фильмы через торрент без регистрации. Новинки кино в хорошем качестве через торрент. На UnionPeer.org можно скачать через торрент фильмы 2014 и 2015 годов. Самые новые фильмы.

Скачать торрент Семейка Аддамс The Addams Family бесплатно через .torrent фильм мультфильм сериал

Статистика раздачи
Размер:  1.57 GB   |    Зарегистрирован:  1 месяц   |    .torrent скачан:  145 раз   |   
Раздают:  2  
 

Скачать Семейка Аддамс / The Addams Family (2019) WEB-DLRip-AVC от ExKinoRay | D через torrent

 
загрузка...
 
Автор Сообщение

Galfimbul

avatar Galfimbul


Семейка Аддамс /The Addams Family

Год выпуска: 2019
Жанр: Мультфильм, ужасы, фэнтези, комедия, семейный
Режиссер: Грег Тирнан, Конрад Вернон
В ролях: Оскар Айзек, Шарлиз Терон, Хлоя Грейс Морец, Финн Вулфард, Ник Кролл, Снуп Догг, Бетт Мидлер, Эллисон Джэнни, Мартин Шорт, Кэтрин О`Хара

О фильме: Папа любит долгие прогулки в ненастную погоду. Мама считает, что черный цвет самый яркий. У детей кладбище - любимая площадка для игр. Бабушка выпивает пару капель яда перед сном. Вы все еще думаете, что ваши родственники странные? Знакомьтесь - семейка Аддамс.



Страна: Канада, США
Студия: Metro-Goldwyn-Mayer (MGM), Cinesite Animation
Продолжительность: 01:27:26
Перевод: Дублированный | Онлайн кинотеатр

Формат: MKV
Качество: WEB-DLRip-AVC
Видео: MPEG-4 AVC, 1024x552 (1.85:1), 23.976 fps, 1989 Kbps, 0.147 bit/pixel
Аудио #01: 48 kHz, AC3, 2.0, 192 Kbps | Дублированный | RUS |
Аудио #02: 48 kHz, AC3, 5.1, 384 Kbps | Оригинал | ENG |
Субтитры: Английские
General
Unique ID : 179591203043206179765719880276115498758 (0x871C01F009CE74A699EC7DFB3060A706)
Complete name : F:The.Addams.Family.2019.Dub.AVC.ExKinoRay.mkv
Format : Matroska
Format version : Version 2
File size : 1.57 GiB
Duration : 1 h 27 min
Overall bit rate : 2 564 kb/s
Movie name : The Addams Family 2019 from ExKinoRay
Encoded date : UTC 2019-12-24 20:51:04
Writing application : mkvmerge v5.6.0 ('Kenya Kane') built on May 27 2012 16:44:04
Writing library : libebml v1.2.3 + libmatroska v1.3.0

Video
ID : 1
Format : AVC
Format/Info : Advanced Video Codec
Format profile : High@L4.1
Format settings, CABAC : Yes
Format settings, ReFrames : 12 frames
Codec ID : V_MPEG4/ISO/AVC
Duration : 1 h 27 min
Bit rate : 1 989 kb/s
Width : 1 024 pixels
Height : 552 pixels
Display aspect ratio : 1.85:1
Frame rate mode : Constant
Frame rate : 23.976 (23976/1000) FPS
Color space : YUV
Chroma subsampling : 4:2:0
Bit depth : 8 bits
Scan type : Progressive
Bits/(Pixel*Frame) : 0.147
Stream size : 1.18 GiB (76%)
Title : Enigma
Writing library : x264 core 152 r2851 ba24899
Encoding settings : cabac=1 / ref=12 / deblock=1:-2:-2 / analyse=0x3:0x113 / me=umh / subme=10 / psy=1 / psy_rd=1.00:0.05 / mixed_ref=1 / me_range=32 / chroma_me=1 / trellis=2 / 8x8dct=1 / cqm=0 / deadzone=21,11 / fast_pskip=0 / chroma_qp_offset=-3 / threads=12 / lookahead_threads=3 / sliced_threads=0 / nr=0 / decimate=0 / interlaced=0 / bluray_compat=0 / constrained_intra=0 / bframes=10 / b_pyramid=2 / b_adapt=2 / b_bias=0 / direct=3 / weightb=1 / open_gop=0 / weightp=2 / keyint=240 / keyint_min=23 / scenecut=40 / intra_refresh=0 / rc=2pass / mbtree=0 / bitrate=1989 / ratetol=1.0 / qcomp=0.60 / qpmin=0 / qpmax=51 / qpstep=4 / cplxblur=20.0 / qblur=0.5 / ip_ratio=1.40 / pb_ratio=1.30 / aq=1:1.00
Language : English
Default : Yes
Forced : No
Color range : Limited
Color primaries : BT.709
Transfer characteristics : BT.709
Matrix coefficients : BT.709

Audio #1
ID : 2
Format : AC-3
Format/Info : Audio Coding 3
Mode extension : CM (complete main)
Format settings, Endianness : Big
Codec ID : A_AC3
Duration : 1 h 27 min
Bit rate mode : Constant
Bit rate : 192 kb/s
Channel(s) : 2 channels
Channel positions : Front: L R
Sampling rate : 48.0 kHz
Frame rate : 31.250 FPS (1536 spf)
Compression mode : Lossy
Stream size : 120 MiB (7%)
Title : Dub
Language : Russian
Default : Yes
Forced : No

Audio #2
ID : 3
Format : AC-3
Format/Info : Audio Coding 3
Mode extension : CM (complete main)
Format settings, Endianness : Big
Codec ID : A_AC3
Duration : 1 h 27 min
Bit rate mode : Constant
Bit rate : 384 kb/s
Channel(s) : 6 channels
Channel positions : Front: L C R, Side: L R, LFE
Sampling rate : 48.0 kHz
Frame rate : 31.250 FPS (1536 spf)
Compression mode : Lossy
Stream size : 240 MiB (15%)
Title : English
Language : English
Default : No
Forced : No

Text
ID : 4
Format : UTF-8
Codec ID : S_TEXT/UTF8
Codec ID/Info : UTF-8 Plain Text
Language : English
Default : No
Forced : No


Автор релиза:
Источник http://BlaTor.org

Трекер:  [ 25-Дек-2019 02:00 ]

  

Скачать .torrent

Размер .torrent файла 16 KB


Размер: 1.57 GB
Хэш (hash) релиза: 1933aa6ac4f74b20ec425fccd1f481cb4aaf4dfa
Подписка на обновления:

Торренты, похожие на Семейка Аддамс The Addams Family скачать торрент

Форум Название Автор Размер S L Добавлен
Зарубежные фильмы до 2016 ·· Семейка Аддамс, Ценности семейки Аддамс / The Addams Family, Addams Family Values (Барри Зонненфельд / Barry Sonnenfeld) [1991, 1993, США, фэнтези, комедия, 2xDVD9 (Custom)] MVO + AVO + Original Eng Galfimbul 98387099019.16 GB 0 0 1505073970

23:06

10-Сен-17

Зарубежные фильмы до 2016 ·· Семейка Аддамс, Ценности семейки Аддамс / The Addams Family, Addams Family Values (Барри Зонненфельд / Barry Sonnenfeld) [1991, 1993, Черная комедия, Фэнтези, HDTVRip 720p] 2*MVO + 3*AVO (Михалев, Сербин, Сонькин) + Original Eng Galfimbul 1289728964512.01 GB 0 0 1311318883

10:14

22-Июл-11

Мультфильмы 2016-2020 (Новинки мультфильмов) ·%· Семейка Аддамс / The Addams Family (2019) BDRip от Twister & ExKinoRay | D Galfimbul 15265774781.42 GB 2 0 1579633238

22:00

21-Янв-20

Мультфильмы 2016-2020 (Новинки мультфильмов) ·%· Семейка Аддамс / The Addams Family (2019) BDRip-AVC от OlLanDGroup | D Galfimbul 782651477746 MB 0 0 1579272613

17:50

17-Янв-20

Мультфильмы 2016-2020 (Новинки мультфильмов) ·%· Семейка Аддамс / The Addams Family (2019) BDRip | А Galfimbul 15695421441.46 GB 2 0 1578994213

12:30

14-Янв-20

Мультфильмы 2016-2020 (Новинки мультфильмов) ·%· Семейка Аддамс / The Addams Family (2019) BDRip 720p | D Galfimbul 49145231544.58 GB 1 8 1578936013

20:20

13-Янв-20

Мультфильмы 2016-2020 (Новинки мультфильмов) ·%· Семейка Аддамс / The Addams Family (2019) BDRip | D Galfimbul 779440128743 MB 0 0 1578858014

22:40

12-Янв-20

Мультфильмы 2016-2020 (Новинки мультфильмов) ·%· Семейка Аддамс / The Addams Family (2019) BDRip 1080p | D Galfimbul 81706955547.61 GB 1 8 1578814817

10:40

12-Янв-20

Мультфильмы 2016-2020 (Новинки мультфильмов) ·%· Семейка Аддамс / The Addams Family (2019) WEB-DLRip-AVC от OlLanDGroup | D Galfimbul 782033797746 MB 2 0 1577773815

09:30

31-Дек-19

Мультфильмы 2016-2020 (Новинки мультфильмов) ·%· Семейка Аддамс / The Addams Family (2019) WEB-DLRip от Portablius | D Galfimbul 781549568745 MB 0 0 1577608229

11:30

29-Дек-19

Мультфильмы 2016-2020 (Новинки мультфильмов) ·%· Семейка Аддамс / The Addams Family (2019) WEB-DLRip от Scarabey | D Galfimbul 14426214401.34 GB 1 7 1577541291

16:54

28-Дек-19

Мультфильмы 2016-2020 (Новинки мультфильмов) ·%· Семейка Аддамс / The Addams Family (2019) WEB-DLRip от MegaPeer | D Galfimbul 15705989121.46 GB 2 0 1577211030

21:10

24-Дек-19

Мультфильмы 2016-2020 (Новинки мультфильмов) ·%· Семейка Аддамс / The Addams Family (2019) WEB-DL 1080p от селезень | D Galfimbul 37677038973.51 GB 5 10 1577196614

17:10

24-Дек-19

Зарубежные фильмы до 2016 ·· Семейка Аддамс / The Addams Family (Барри Зонненфельд / Barry Sonnenfeld) [1991, США, фэнтези, комедия, семейный, BDRip] MVO Galfimbul 15580405761.45 GB 0 0 1380293119

17:45

27-Сен-13

Зарубежные фильмы до 2016 ·· Семейка Аддамс / The Addams Family (Барри Зонненфельд / Barry Sonnenfeld) [1991 г., фэнтези, черная комедия, семейный, DVDRip] Galfimbul 735098880701 MB 0 0 1365325475

12:04

7-Апр-13

Зарубежные фильмы до 2016 ·· Моральные ценности семейки Аддамс / The Addams Family Values (Барри Зонненфельд) [1993 г., Комедия, DVDRip] Galfimbul 734570496701 MB 0 0 1365323833

11:37

7-Апр-13

Зарубежные фильмы до 2016 ·· Семейка Аддамс / The Addams Family (Барри Зонненфельд) [1991 г., ужасы, фэнтези, комедия, семейный, DVDRip-AVC] Galfimbul 17956140071.67 GB 0 0 1365317108

09:45

7-Апр-13

Зарубежные фильмы до 2016 ·· Семейка Аддамс / The Addams Family (Барри Зонненфельд / Barry Sonnenfeld) [1991 г., Комедия, Ужасы, Семейный, HDTVRip] MVO + AVO (Михалёв) + Eng Captain Claw 23501475842.19 GB 0 0 1290622129

21:08

24-Ноя-10

Еще никто не оставлял запись к записи скачать торрент Семейка Аддамс The Addams Family . Будь первым!

!Обратная связь