Скачать через торрент Форсаж: Шпионы-гонщики Fast & Furious Фильм бесплатно в хорошем качестве torrent

Скачивайте на UnionPeer.org фильмы через торрент без регистрации. Новинки кино в хорошем качестве через торрент. На UnionPeer.org можно скачать через торрент фильмы 2014 и 2015 годов. Самые новые фильмы.

Скачать торрент Форсаж: Шпионы-гонщики Fast & Furious бесплатно через .torrent фильм мультфильм сериал

Статистика раздачи
Размер:  7.58 GB   |    Зарегистрирован:  30 дней   |    .torrent скачан:  53 раза   |   
Раздают:  1  
 

Скачать Форсаж: Шпионы-гонщики / Fast & Furious [S01] (2019) WEB-DL 1080p | Пифагор через torrent

 
загрузка...
 
Автор Сообщение

Galfimbul

avatar Galfimbul



Страна: США
Студии: DreamWorks Animation, Chris Morgan Production, One Race Films, Original Film, Universal Animation Studios, Universal Pictures
Жанр: мультфильм, боевик, криминал
Продолжительность серии: ~25мин.
Год выпуска: 2019
Перевод: Профессиональный (дублированный) Пифагор
Русские субтитры: есть
Режиссёр: Юджин Ли / Eugene Lee
Роли озвучивали: Тайлер Пози, Камилль Рэмси, Люк Янблад, Чихай Чунг, Хорхе Диас, Баярдо Де Мургуйя, Барака Мэй, Карлос Аласраки, Эрик Бауза, Маниш Дайал
Описание: Молодого Тони Торетто, двоюродного брата Доминика, вербует правительственное агентство. Вместе со своими друзьями Тони должен стать членом элитной гоночной лиги, ведь скоростное развлечение — лишь прикрытие для могущественной преступной организации, планирующей захватить мир.

Качество: WEB-DL 1080p
Формат: MKV
Видео: AVC, 1920x1080 (16:9), 23.976 fps, ~ 5800 Kbps
Аудио 1: E-AС3, 48,0 kHz, 6 ch, 640 kbps | Netflix
Аудио 2: E-AС3, 48,0 kHz, 6 ch, 640 kbps | English
Субтитры: русские (Forced, Full), английские, немецкие, польские, датские, шведские, португальские, французские, чешские, бразильские португальские, греческие, финские, венгерские, европеские испанские, индонезийские, турецкие, голландские, испанские, норвежские, итальянские
 
General
Complete name : Fast.Furious.Spy.Racers.S01E01.WEB-DL.1080p.-Kyle.mkv
Format : Matroska
Format version : Version 4
File size : 1.17 GiB
Duration : 24 min 18 s
Overall bit rate mode : Variable
Overall bit rate : 6 877 kb/s
Encoded date : UTC 2019-12-26 08:04:55
Writing application : mkvmerge v41.0.0 ('Smarra') 64-bit
Writing library : libebml v1.3.9 + libmatroska v1.5.2

Video
ID : 1
Format : AVC
Format/Info : Advanced Video Codec
Format profile : Main@L4
Format settings : CABAC / 3 Ref Frames
Format settings, CABAC : Yes
Format settings, Reference : 3 frames
Codec ID : V_MPEG4/ISO/AVC
Duration : 24 min 18 s
Bit rate mode : Variable
Bit rate : 5 800 kb/s
Maximum bit rate : 8 700 kb/s
Width : 1 920 pixels
Height : 1 080 pixels
Display aspect ratio : 16:9
Frame rate mode : Constant
Frame rate : 23.976 (24000/1001) FPS
Color space : YUV
Chroma subsampling : 4:2:0
Bit depth : 8 bits
Scan type : Progressive
Bits/(Pixel*Frame) : 0.117
Stream size : 972 MiB (81%)
Title : English
Writing library : x264 core 148 r2715 7e75228
Encoding settings : cabac=1 / ref=3 / deblock=1:0:0 / analyse=0x1:0x111 / me=umh / subme=10 / psy=1 / psy_rd=1.00:0.00 / mixed_ref=1 / me_range=24 / chroma_me=1 / trellis=2 / 8x8dct=0 / cqm=0 / deadzone=21,11 / fast_pskip=1 / chroma_qp_offset=-2 / threads=6 / lookahead_threads=1 / sliced_threads=0 / nr=0 / decimate=1 / interlaced=0 / bluray_compat=0 / stitchable=1 / constrained_intra=0 / bframes=2 / b_pyramid=0 / b_adapt=2 / b_bias=0 / direct=3 / weightb=1 / open_gop=0 / weightp=2 / keyint=250 / keyint_min=23 / scenecut=0 / intra_refresh=0 / rc_lookahead=48 / rc=2pass / mbtree=1 / bitrate=5800 / ratetol=1.0 / qcomp=0.50 / qpmin=6 / qpmax=51 / qpstep=4 / cplxblur=20.0 / qblur=0.5 / vbv_maxrate=8700 / vbv_bufsize=11600 / nal_hrd=vbr / filler=0 / ip_ratio=1.40 / aq=1:1.00
Language : English
Default : Yes
Forced : No

Audio #1
ID : 2
Format : E-AC-3
Format/Info : Enhanced AC-3
Commercial name : Dolby Digital Plus
Codec ID : A_EAC3
Duration : 24 min 18 s
Bit rate mode : Constant
Bit rate : 640 kb/s
Channel(s) : 6 channels
Channel layout : L R C LFE Ls Rs
Sampling rate : 48.0 kHz
Frame rate : 31.250 FPS (1536 SPF)
Compression mode : Lossy
Stream size : 111 MiB (9%)
Title : Russian
Language : Russian
Service kind : Complete Main
Default : Yes
Forced : No

Audio #2
ID : 3
Format : E-AC-3
Format/Info : Enhanced AC-3
Commercial name : Dolby Digital Plus
Codec ID : A_EAC3
Duration : 24 min 18 s
Bit rate mode : Constant
Bit rate : 640 kb/s
Channel(s) : 6 channels
Channel layout : L R C LFE Ls Rs
Sampling rate : 48.0 kHz
Frame rate : 31.250 FPS (1536 SPF)
Compression mode : Lossy
Stream size : 111 MiB (9%)
Title : English
Language : English
Service kind : Complete Main
Default : No
Forced : No

Text #1
ID : 4
Format : UTF-8
Codec ID : S_TEXT/UTF8
Codec ID/Info : UTF-8 Plain Text
Duration : 23 min 4 s
Bit rate : 2 b/s
Count of elements : 13
Stream size : 483 Bytes (0%)
Title : Forced
Language : Russian
Default : Yes
Forced : No

Text #2
ID : 5
Format : UTF-8
Codec ID : S_TEXT/UTF8
Codec ID/Info : UTF-8 Plain Text
Duration : 23 min 4 s
Bit rate : 105 b/s
Count of elements : 382
Stream size : 17.8 KiB (0%)
Title : Russian
Language : Russian
Default : No
Forced : No

Text #3
ID : 6
Format : UTF-8
Codec ID : S_TEXT/UTF8
Codec ID/Info : UTF-8 Plain Text
Duration : 22 min 54 s
Bit rate : 84 b/s
Count of elements : 413
Stream size : 14.2 KiB (0%)
Title : English
Language : English
Default : No
Forced : No

Text #4
ID : 7
Format : UTF-8
Codec ID : S_TEXT/UTF8
Codec ID/Info : UTF-8 Plain Text
Duration : 23 min 4 s
Bit rate : 66 b/s
Count of elements : 319
Stream size : 11.3 KiB (0%)
Title : German
Language : German
Default : No
Forced : No

Text #5
ID : 8
Format : UTF-8
Codec ID : S_TEXT/UTF8
Codec ID/Info : UTF-8 Plain Text
Duration : 23 min 3 s
Bit rate : 55 b/s
Count of elements : 339
Stream size : 9.41 KiB (0%)
Title : Polish
Language : Polish
Default : No
Forced : No

Text #6
ID : 9
Format : UTF-8
Codec ID : S_TEXT/UTF8
Codec ID/Info : UTF-8 Plain Text
Duration : 22 min 38 s
Bit rate : 73 b/s
Count of elements : 331
Stream size : 12.1 KiB (0%)
Title : Danish
Language : Danish
Default : No
Forced : No

Text #7
ID : 10
Format : UTF-8
Codec ID : S_TEXT/UTF8
Codec ID/Info : UTF-8 Plain Text
Duration : 23 min 4 s
Bit rate : 66 b/s
Count of elements : 312
Stream size : 11.2 KiB (0%)
Title : Swedish
Language : Swedish
Default : No
Forced : No

Text #8
ID : 11
Format : UTF-8
Codec ID : S_TEXT/UTF8
Codec ID/Info : UTF-8 Plain Text
Duration : 23 min 4 s
Bit rate : 65 b/s
Count of elements : 339
Stream size : 11.1 KiB (0%)
Title : Portuguese
Language : Portuguese
Default : No
Forced : No

Text #9
ID : 12
Format : UTF-8
Codec ID : S_TEXT/UTF8
Codec ID/Info : UTF-8 Plain Text
Duration : 23 min 2 s
Bit rate : 75 b/s
Count of elements : 348
Stream size : 12.8 KiB (0%)
Title : French
Language : French
Default : No
Forced : No

Text #10
ID : 13
Format : UTF-8
Codec ID : S_TEXT/UTF8
Codec ID/Info : UTF-8 Plain Text
Duration : 23 min 4 s
Bit rate : 60 b/s
Count of elements : 349
Stream size : 10.2 KiB (0%)
Title : Czech
Language : Czech
Default : No
Forced : No

Text #11
ID : 14
Format : UTF-8
Codec ID : S_TEXT/UTF8
Codec ID/Info : UTF-8 Plain Text
Duration : 23 min 4 s
Bit rate : 66 b/s
Count of elements : 340
Stream size : 11.3 KiB (0%)
Title : Brazilian Portuguese
Language : Portuguese
Default : No
Forced : No

Text #12
ID : 15
Format : UTF-8
Codec ID : S_TEXT/UTF8
Codec ID/Info : UTF-8 Plain Text
Duration : 23 min 4 s
Bit rate : 109 b/s
Count of elements : 341
Stream size : 18.5 KiB (0%)
Title : Greek
Language : Greek
Default : No
Forced : No

Text #13
ID : 16
Format : UTF-8
Codec ID : S_TEXT/UTF8
Codec ID/Info : UTF-8 Plain Text
Duration : 23 min 4 s
Bit rate : 60 b/s
Count of elements : 335
Stream size : 10.3 KiB (0%)
Title : Finnish
Language : Finnish
Default : No
Forced : No

Text #14
ID : 17
Format : UTF-8
Codec ID : S_TEXT/UTF8
Codec ID/Info : UTF-8 Plain Text
Duration : 23 min 4 s
Bit rate : 74 b/s
Count of elements : 349
Stream size : 12.6 KiB (0%)
Title : Hungarian
Language : Hungarian
Default : No
Forced : No

Text #15
ID : 18
Format : UTF-8
Codec ID : S_TEXT/UTF8
Codec ID/Info : UTF-8 Plain Text
Duration : 23 min 4 s
Bit rate : 70 b/s
Count of elements : 333
Stream size : 12.0 KiB (0%)
Title : European Spanish
Language : Spanish
Default : No
Forced : No

Text #16
ID : 19
Format : UTF-8
Codec ID : S_TEXT/UTF8
Codec ID/Info : UTF-8 Plain Text
Duration : 23 min 4 s
Bit rate : 65 b/s
Count of elements : 349
Stream size : 11.1 KiB (0%)
Title : Indonesian
Language : Indonesian
Default : No
Forced : No

Text #17
ID : 20
Format : UTF-8
Codec ID : S_TEXT/UTF8
Codec ID/Info : UTF-8 Plain Text
Duration : 23 min 4 s
Bit rate : 68 b/s
Count of elements : 346
Stream size : 11.6 KiB (0%)
Title : Turkish
Language : Turkish
Default : No
Forced : No

Text #18
ID : 21
Format : UTF-8
Codec ID : S_TEXT/UTF8
Codec ID/Info : UTF-8 Plain Text
Duration : 23 min 3 s
Bit rate : 63 b/s
Count of elements : 296
Stream size : 10.7 KiB (0%)
Title : Dutch
Language : Dutch
Default : No
Forced : No

Text #19
ID : 22
Format : UTF-8
Codec ID : S_TEXT/UTF8
Codec ID/Info : UTF-8 Plain Text
Duration : 23 min 4 s
Bit rate : 65 b/s
Count of elements : 345
Stream size : 11.0 KiB (0%)
Title : Spanish
Language : Spanish
Default : No
Forced : No

Text #20
ID : 23
Format : UTF-8
Codec ID : S_TEXT/UTF8
Codec ID/Info : UTF-8 Plain Text
Duration : 23 min 4 s
Bit rate : 67 b/s
Count of elements : 329
Stream size : 11.5 KiB (0%)
Title : Norwegian
Language : Norwegian
Default : No
Forced : No

Text #21
ID : 24
Format : UTF-8
Codec ID : S_TEXT/UTF8
Codec ID/Info : UTF-8 Plain Text
Duration : 23 min 4 s
Bit rate : 61 b/s
Count of elements : 342
Stream size : 10.3 KiB (0%)
Title : Italian
Language : Italian
Default : No
Forced : No

Источник http://BlaTor.org

Трекер:  [ 26-Дек-2019 12:10 ]

  

Скачать .torrent

Размер .torrent файла 39 KB


Размер: 7.58 GB
Хэш (hash) релиза: 8dc48cfc2fb731d5eaaf3aa91499a9e7e1f2acd5
Подписка на обновления:

Еще никто не оставлял запись к записи скачать торрент Форсаж: Шпионы-гонщики Fast & Furious . Будь первым!

!Обратная связь