Скачать через торрент Сельма в городе призраков Dia de Muertos Фильм бесплатно в хорошем качестве torrent

Скачивайте на UnionPeer.org фильмы через торрент без регистрации. Новинки кино в хорошем качестве через торрент. На UnionPeer.org можно скачать через торрент фильмы 2014 и 2015 годов. Самые новые фильмы.

Скачать торрент Сельма в городе призраков Dia de Muertos бесплатно через .torrent фильм мультфильм сериал

Статистика раздачи
Размер:  3.03 GB   |    Зарегистрирован:  7 месяцев   |    .torrent скачан:  71 раз   |   
Раздают:  1  
 

Скачать Сельма в городе призраков / Dia de Muertos (2019) WEB-DL 1080p | iTunes через torrent

 
Sprinthost
загрузка...
 
Автор Сообщение

Galfimbul ghost

avatar Galfimbul ghost


Название: Сельма в городе призраков
Оригинальное название: Dia de Muertos
Год выпуска: 2019
Жанр: Мультфильм, фэнтези, семейный, полнометражный
Режиссер: Карлос Гутиеррез Медрано
В ролях: Фернанда Кастильо, Алан Эстрада, Карло Рота, Мемо Апонте, Джуэлс Джазелль, Дино Андраде, Дани Арто, Сюзана Баллестерос, Диего Осорио, Камила Амезкуа

О фильме: Сельма выросла в любящей приемной семье, но вот уже 16 лет она мечтает встретить своих настоящих родителей. Неожиданно её старшие братья находят древнюю книгу заклинаний, открывающую путь в другие миры. Втроем они отправятся в путешествие в удивительный Город Призраков, чтобы отыскать ключ к прошлому девушки.



Страна: Мексика
Студия: Metacube, Symbosys Technologies
Продолжительность: 01:28:05
Перевод: Дублированный | iTunes

Файл
Качество: WEB-DL 1080p
Контейнер: MKV
Видео: MPEG-4 AVC, 1920x804, 4441 Kbps, 24.000 fps
Аудио: Russian: AC3, 6 ch, 48 kHz, 384 kbps - DUB, iTunes
Субтитры: Нет
General
Unique ID : 196931092966983015158449476586459049877 (0x94278C8439BE402F90B0F621F0D72F95)
Complete name : Selma.v.gorode.prizrakov.2O19.D.WeB-DL.1O80p.mkv
Format : Matroska
Format version : Version 4 / Version 2
File size : 3.03 GiB
Duration : 1 h 28 min
Overall bit rate : 4 923 kb/s
Encoded date : UTC 2019-12-25 19:13:52
Writing application : mkvmerge v6.9.1 ('Blue Panther') 32bit built on Apr 18 2014 18:15:44
Writing library : libebml v1.3.0 + libmatroska v1.4.1
Cover : Yes
Attachments : cover1.png

Video
ID : 1
Format : AVC
Format/Info : Advanced Video Codec
Format profile : High@L4
Format settings, CABAC : Yes
Format settings, RefFrames : 5 frames
Codec ID : V_MPEG4/ISO/AVC
Duration : 1 h 28 min
Bit rate : 4 441 kb/s
Width : 1 920 pixels
Height : 804 pixels
Display aspect ratio : 2.40:1
Frame rate mode : Constant
Frame rate : 24.000 FPS
Color space : YUV
Chroma subsampling : 4:2:0
Bit depth : 8 bits
Scan type : Progressive
Bits/(Pixel*Frame) : 0.120
Stream size : 2.73 GiB (90%)
Language : English
Default : Yes
Forced : No
Color range : Limited
Color primaries : BT.709
Transfer characteristics : BT.709
Matrix coefficients : BT.709

Audio
ID : 2
Format : AC-3
Format/Info : Audio Coding 3
Format settings, Endianness : Big
Codec ID : A_AC3
Duration : 1 h 28 min
Bit rate mode : Constant
Bit rate : 384 kb/s
Channel(s) : 6 channels
Channel positions : Front: L C R, Side: L R, LFE
Sampling rate : 48.0 kHz
Frame rate : 31.250 FPS (1536 SPF)
Bit depth : 16 bits
Compression mode : Lossy
Stream size : 242 MiB (8%)
Title : iTunes
Language : Russian
Service kind : Complete Main
Default : Yes
Forced : No

Menu
00:00:00.000 : en:Глава 1
00:08:38.500 : en:Глава 2
00:17:06.375 : en:Глава 3
00:25:57.875 : en:Глава 4
00:34:20.041 : en:Глава 5
00:42:53.041 : en:Глава 6
00:51:01.332 : en:Глава 7
00:59:17.165 : en:Глава 8
01:07:32.623 : en:Глава 9
01:15:56.373 : en:Глава 10
Источник http://BlaTor.org

Внимание! AdBlock блокирует показ скриншотов, все вопросы к разработчикам )))
Трекер:  [ 26-Дек-2019 15:10 ]

  

Скачать .torrent

Размер .torrent файла 15 KB


Размер: 3.03 GB
Хэш (hash) релиза: ec8e4f376a90e131c2ba9c700c6177842e2a1b3d
Подписка на обновления:

Торренты, похожие на Сельма в городе призраков Dia de Muertos скачать торрент

Форум Название Автор Размер S L Добавлен
Мультфильмы 2016-2020 (Новинки мультфильмов) ·%· Сельма в городе призраков / Dia de Muertos (2019) WEB-DLRip от Portablius | iTunes Galfimbul ghost 780965888745 MB 0 0 1577541319

16:55

28-Дек-19

Мультфильмы 2016-2020 (Новинки мультфильмов) ·%· Сельма в городе призраков / Dia de Muertos (2019) WEB-DLRip | iTunes Galfimbul ghost 15630602241.46 GB 0 0 1577541313

16:55

28-Дек-19

dpd RU

Еще никто не оставлял запись к записи скачать торрент Сельма в городе призраков Dia de Muertos . Будь первым!

!Обратная связь