Скачать через торрент Странные чары Strange Magic Фильм бесплатно в хорошем качестве torrent

Скачивайте на UnionPeer.org фильмы через торрент без регистрации. Новинки кино в хорошем качестве через торрент. На UnionPeer.org можно скачать через торрент фильмы 2014 и 2015 годов. Самые новые фильмы.

Скачать торрент Странные чары Strange Magic бесплатно через .torrent фильм мультфильм сериал

Статистика раздачи
Размер:  4.43 GB   |    Зарегистрирован:  26 дней   |    .torrent скачан:  59 раз   |   
Раздают:  1  
 

Скачать Странные чары / Strange Magic (2015) WEBRip 1080p | iTunes через torrent

 
загрузка...
 
Автор Сообщение

Galfimbul

avatar Galfimbul


Странные чары /Strange Magic

Год выхода: 2015
Жанр: Мультфильм, мюзикл, фэнтези, семейный, полнометражный
Режиссер: Гари Ридстром
В ролях: Алан Камминг, Эван Рэйчел Вуд, Элайджа Келли, Мередит Энн Булл, Сэм Палладио, Кристин Ченоуэт, Альфред Молина, Майя Рудольф, Боб Эйнштейн, Петер Стормаре, Кевин Майкл Ричардсон, Ллу Джонсон, Робби Дэймонд, Бренда Чепмен, Тони Кокс

О фильме:
Музыкальная сказка о гоблинах, эльфах, феях и бесах, рассказанная под мелодии популярных песен последних шести десятилетий.



Страна: США
Студия: Industrial Light & Magic (ILM), Lucasfilm Animation, Lucasfilm Animation Singapore, Lucasfilm Ltd., Touchstone Pictures
Продолжительность: 01:39:54
Перевод: Дублированный | iTunes

Файл
Кодек: AVC
Качество: WEBRip 1080p
Видео: MPEG-4 AVC, 5620 Kбит/с, 1920x1080, 23.976 кадр/с
Аудио #1: Русский (АС3, 6 ch, 384 Кбит/с, 48.0 KHz) Профессиональный (дублированный) iTunes
Аудио #2: Английский (АС3, 6 ch, 384 Кбит/с, 48.0 KHz)
Субтитры: Русские (Forced (песни), Full), английские
Источник: Strange.Magic.2015.1080p.NF.WEBRip.DD5.1.x264-TrollHD
General
Unique ID : 171955619414464486862628258768924664192 (0x815D72996D18084393CF1131933F6180)
Complete name : Strange.Magic.2015.NF.WEBRip.1080p.mkv
Format : Matroska
Format version : Version 4
File size : 4.43 GiB
Duration : 1 h 39 min
Overall bit rate mode : Variable
Overall bit rate : 6 346 kb/s
Encoded date : UTC 2019-12-30 10:25:58
Writing application : mkvmerge v7.1.0 ('Good Love') 64bit built on Jul 27 2014 13:06:55
Writing library : libebml v1.3.0 + libmatroska v1.4.1

Video
ID : 1
Format : AVC
Format/Info : Advanced Video Codec
Format profile : Main@L4
Format settings : CABAC / 3 Ref Frames
Format settings, CABAC : Yes
Format settings, Reference fra : 3 frames
Codec ID : V_MPEG4/ISO/AVC
Duration : 1 h 39 min
Bit rate mode : Variable
Bit rate : 5 620 kb/s
Maximum bit rate : 8 430 kb/s
Width : 1 920 pixels
Height : 1 080 pixels
Display aspect ratio : 16:9
Frame rate mode : Constant
Frame rate : 23.976 (24000/1001) FPS
Color space : YUV
Chroma subsampling : 4:2:0
Bit depth : 8 bits
Scan type : Progressive
Bits/(Pixel*Frame) : 0.113
Stream size : 3.89 GiB (88%)
Writing library : x264 core 118
Encoding settings : cabac=1 / ref=3 / deblock=1:0:0 / analyse=0x1:0x111 / me=umh / subme=10 / psy=1 / psy_rd=1.00:0.00 / mixed_ref=1 / me_range=24 / chroma_me=1 / trellis=2 / 8x8dct=0 / cqm=0 / deadzone=21,11 / fast_pskip=1 / chroma_qp_offset=-2 / threads=6 / sliced_threads=0 / nr=0 / decimate=1 / interlaced=0 / bluray_compat=0 / constrained_intra=0 / bframes=2 / b_pyramid=0 / b_adapt=2 / b_bias=0 / direct=3 / weightb=1 / open_gop=0 / weightp=2 / keyint=48 / keyint_min=25 / scenecut=0 / intra_refresh=0 / rc_lookahead=0 / rc=2pass / mbtree=1 / bitrate=5620 / ratetol=1.0 / qcomp=0.50 / qpmin=6 / qpmax=51 / qpstep=4 / cplxblur=20.0 / qblur=0.5 / vbv_maxrate=8430 / vbv_bufsize=11240 / nal_hrd=vbr / ip_ratio=1.40 / aq=1:1.00
Language : English
Default : Yes
Forced : No

Audio #1
ID : 2
Format : AC-3
Format/Info : Audio Coding 3
Commercial name : Dolby Digital
Codec ID : A_AC3
Duration : 1 h 39 min
Bit rate mode : Constant
Bit rate : 384 kb/s
Channel(s) : 6 channels
Channel layout : L R C LFE Ls Rs
Sampling rate : 48.0 kHz
Frame rate : 31.250 FPS (1536 SPF)
Compression mode : Lossy
Stream size : 273 MiB (6%)
Title : iTunes
Language : Russian
Service kind : Complete Main
Default : Yes
Forced : No

Audio #2
ID : 3
Format : AC-3
Format/Info : Audio Coding 3
Commercial name : Dolby Digital
Codec ID : A_AC3
Duration : 1 h 39 min
Bit rate mode : Constant
Bit rate : 384 kb/s
Channel(s) : 6 channels
Channel layout : L R C LFE Ls Rs
Sampling rate : 48.0 kHz
Frame rate : 31.250 FPS (1536 SPF)
Compression mode : Lossy
Stream size : 274 MiB (6%)
Language : English
Service kind : Complete Main
Default : No
Forced : No

Text #1
ID : 4
Format : UTF-8
Codec ID : S_TEXT/UTF8
Codec ID/Info : UTF-8 Plain Text
Duration : 1 h 37 min
Bit rate : 21 b/s
Count of elements : 389
Stream size : 15.2 KiB (0%)
Title : Forced
Language : Russian
Default : Yes
Forced : No

Text #2
ID : 5
Format : UTF-8
Codec ID : S_TEXT/UTF8
Codec ID/Info : UTF-8 Plain Text
Duration : 1 h 38 min
Bit rate : 90 b/s
Count of elements : 1641
Stream size : 65.4 KiB (0%)
Title : Full
Language : Russian
Default : No
Forced : No

Text #3
ID : 6
Format : UTF-8
Codec ID : S_TEXT/UTF8
Codec ID/Info : UTF-8 Plain Text
Duration : 1 h 38 min
Bit rate : 59 b/s
Count of elements : 1347
Stream size : 42.6 KiB (0%)
Language : English
Default : No
Forced : No

Text #4
ID : 7
Format : UTF-8
Codec ID : S_TEXT/UTF8
Codec ID/Info : UTF-8 Plain Text
Duration : 1 h 38 min
Bit rate : 75 b/s
Count of elements : 2233
Stream size : 54.7 KiB (0%)
Title : SDH
Language : English
Default : No
Forced : No

Menu
00:00:00.000 : en:1
00:01:21.000 : en:2
00:02:59.000 : en:3
00:05:00.000 : en:4
00:10:06.000 : en:5
00:12:36.000 : en:6
00:16:22.000 : en:7
00:24:13.000 : en:8
00:29:09.000 : en:9
00:30:36.000 : en:10
00:35:27.000 : en:11
00:38:15.000 : en:12
00:43:05.000 : en:13
00:45:10.000 : en:14
00:47:50.000 : en:15
00:49:11.000 : en:16
00:50:35.000 : en:17
00:53:51.000 : en:18
00:55:27.000 : en:19
00:57:30.000 : en:20
01:03:38.000 : en:21
01:06:42.000 : en:22
01:11:16.000 : en:23
01:15:00.000 : en:24
01:21:28.000 : en:25
01:26:12.000 : en:26
01:28:57.000 : en:27
01:30:35.000 : en:28
Источник http://BlaTor.org

Трекер:  [ 30-Дек-2019 15:30 ]

  

Скачать .torrent

Размер .torrent файла 11 KB


Размер: 4.43 GB
Хэш (hash) релиза: e2c8b44b639f2dff4b1dd66ba74ecf575832982a
Подписка на обновления:

Еще никто не оставлял запись к записи скачать торрент Странные чары Strange Magic . Будь первым!

!Обратная связь