Скачать через торрент Эдуард Суровый. Слёзы Брайтона Фильм бесплатно в хорошем качестве torrent

Скачивайте на UnionPeer.org фильмы через торрент без регистрации. Новинки кино в хорошем качестве через торрент. На UnionPeer.org можно скачать через торрент фильмы 2014 и 2015 годов. Самые новые фильмы.

Скачать торрент Эдуард Суровый. Слёзы Брайтона бесплатно через .torrent фильм мультфильм сериал

Статистика раздачи
Размер:  3.02 GB   |    Зарегистрирован:  7 месяцев   |    .torrent скачан:  163 раза   |   
Раздают:  1  
 

Скачать Эдуард Суровый. Слёзы Брайтона (2019) HDTV 1080p от Generalfilm через torrent

 
Sprinthost
загрузка...
 
Автор Сообщение

Galfimbul ghost

avatar Galfimbul ghost


Эдуард Суровый. Слезы Брайтона


Год выпуска: 2019
Страна: Россия
Жанр: комедия
Перевод: Не требуется
Продолжительность: 01:09:05
Режиссер: Роман Новиков
В ролях:

Гарик Харламов (Эдуард Суровый), Иван Ургант (играет самого себя), Филипп Киркоров (играет самого себя), Тимати (играет самого себя), Дэниэл Хорват (Ховард), Олег Алмазов (Игорь Конопацкий), Вера Тарасова (Галя), Ольга Кожевникова (Ольга Грейсток), Григорий Лепс (играет самого себя), Лев Лещенко (играет самого себя), Михаил Боярский (играет самого себя), Лариса Рубальская (играет саму себя)
Описание:
Слава песенника Эдуарда Сурового пришлась на 70-е годы прошлого века, когда резидента Comedy Club Гарика Харламова, который назвал в его честь своего одиозного юмористического персонажа, не было еще и в проекте. С личного одобрения Леонида Брежнева Эдуарду позволили представлять СССР, закрытый железным занавесом, на знаменитом европейском музыкальном конкурсе.
Рейтинг:
Качество: HDTV 1080p
Формат: MKV
Видео: AVC, 1920x1080 (16:9), 5934 kbps, 25 fps, 0,114 bpp
Аудио: AC3 / 2.0 / 48 kHz / 192 kbps /

General
Unique ID : 206912871617380989705716849331899703628 (0x9BA9F8334BA32E62B1EF4ADE47DFA14C)
Complete name : E:Запись с твEduard Surovy'j Slyozy Brajtona.2019.HDTV 1080p.by.White Smoke.R.G.Generalfilm.mkv
Format : Matroska
Format version : Version 4 / Version 2
File size : 3.02 GiB
Duration : 1 h 9 min
Overall bit rate mode : Constant
Overall bit rate : 6 251 kb/s
Movie name : Eduard Surovy'j Slyozy Brajtona.2019.HDTV 1080p.by.White Smoke.R.G.Generalfilm.mkv
Encoded date : UTC 2019-12-31 07:22:45
Writing application : mkvmerge v6.8.0 ('Theme for Great Cities') 64bit built on Mar 2 2014 21:34:26
Writing library : libebml v1.3.0 + libmatroska v1.4.1
Cover : Yes
Attachments : cover.png

Video
ID : 1
Format : AVC
Format/Info : Advanced Video Codec
Format profile : High@L4.1
Format settings, CABAC : Yes
Format settings, ReFrames : 3 frames
Codec ID : V_MPEG4/ISO/AVC
Duration : 1 h 9 min
Bit rate mode : Constant
Bit rate : 5 934 kb/s
Nominal bit rate : 7 051 kb/s
Width : 1 920 pixels
Height : 1 080 pixels
Display aspect ratio : 16:9
Frame rate mode : Constant
Frame rate : 25.000 FPS
Standard : PAL
Color space : YUV
Chroma subsampling : 4:2:0
Bit depth : 8 bits
Scan type : Progressive
Bits/(Pixel*Frame) : 0.114
Stream size : 2.86 GiB (95%)
Default : Yes
Forced : No
Color range : Limited
Color primaries : BT.709
Transfer characteristics : BT.709
Matrix coefficients : BT.709

Audio
ID : 2
Format : AC-3
Format/Info : Audio Coding 3
Mode extension : CM (complete main)
Format settings, Endianness : Big
Codec ID : A_AC3
Duration : 1 h 9 min
Bit rate mode : Constant
Bit rate : 192 kb/s
Channel(s) : 2 channels
Channel positions : Front: L R
Sampling rate : 48.0 kHz
Frame rate : 31.250 FPS (1536 spf)
Compression mode : Lossy
Stream size : 94.9 MiB (3%)
Default : Yes
Forced : No
Источник http://BlaTor.org

Внимание! AdBlock блокирует показ скриншотов, все вопросы к разработчикам )))
Трекер:  [ 31-Дек-2019 11:40 ]

  

Скачать .torrent

Размер .torrent файла 15 KB


Размер: 3.02 GB
Хэш (hash) релиза: accd75132010c8678bb67a112dd7fe81c9bda21a
Подписка на обновления:
dpd RU

Еще никто не оставлял запись к записи скачать торрент Эдуард Суровый. Слёзы Брайтона . Будь первым!

!Обратная связь