Скачать через торрент Ford против Ferrari Ford v Ferrari Фильм бесплатно в хорошем качестве torrent

Скачивайте на UnionPeer.org фильмы через торрент без регистрации. Новинки кино в хорошем качестве через торрент. На UnionPeer.org можно скачать через торрент фильмы 2014 и 2015 годов. Самые новые фильмы.

Скачать торрент Ford против Ferrari Ford v Ferrari бесплатно через .torrent фильм мультфильм сериал

Статистика раздачи
Размер:  5.8 GB   |    Зарегистрирован:  24 дня   |    .torrent скачан:  255 раз   |   
Раздают:  7  
 

Скачать Ford против Ferrari / Ford v Ferrari (2019) WEB-DL 1080p | Sub через torrent

 
загрузка...
 
Автор Сообщение

Galfimbul

avatar Galfimbul


Ford против Ferrari /Ford v Ferrari

Год выхода: 2019
Жанр: Биография, спорт, драма, боевик
Режиссер: Джеймс Мэнголд
В ролях: Кристиан Бэйл, Мэтт Дэймон, Катрина Балф, Трэйси Леттс, Джон Бернтал, Ноа Джуп, Джош Лукас, Ремо Джироне, Рэй МакКиннон, Джей Джей Филд, Джек МакМаллен, Коррадо Инверницци, Джо Уильямсон, Иэн Хардинг, Кристофер Дарга,

О фильме:
Фильм рассказывает о взаимоотношениях американского автомобильного конструктора Кэрролла Шелби и отважного британского гонщика Кена Майлза, которые вместе бросили вызов корпорациям и собственным демонам, чтобы создать абсолютно новый спорткар, который смог конкурировать с Ferrari на чемпионате мира, прошедшем во Франции в середине 1960-х.



Страна: США, Франция
Студия: Chernin Entertainment, Twentieth Century Fo
Продолжительность: 02:32:33
Перевод: СУБТИТРЫ

Файл
Кодек: AVC
Качество: WEB-DL 1080p | Ford.V.Ferrari.2019.1080P.DVDScr.X264.AC3.SHQ.Hive-CM8
Видео: MPEG-4 AVC, 4994 Kбит/с, 1920x800, 23.976 кадр/с
Звук: Аудио #1: Английский (АС3, 6 ch, 448 Кбит/с, 48.0 KHz)
Субтитры: Русские (Full (blindAvocado), английские
? Без Рекламы !
Источник: Ford.V.Ferrari.2019.1080P.DVDScr.X264.AC3.SHQ.Hive-CM8
General
Unique ID : 232725759818006730016599834730246967789 (0xAF1559D8EEB799F4B356E77E74D011ED)
Complete name : Ford.V.Ferrari.2019.1080p.DVDScr.X264.Sub.Rus.mkv
Format : Matroska
Format version : Version 4
File size : 5.80 GiB
Duration : 2 h 32 min
Overall bit rate mode : Variable
Overall bit rate : 5 444 kb/s
Encoded date : UTC 2020-01-01 09:43:07
Writing application : mkvmerge v7.1.0 ('Good Love') 64bit built on Jul 27 2014 13:06:55
Writing library : libebml v1.3.0 + libmatroska v1.4.1

Video
ID : 1
Format : AVC
Format/Info : Advanced Video Codec
Format profile : High@L5.1
Format settings : CABAC / 5 Ref Frames
Format settings, CABAC : Yes
Format settings, Reference fra : 5 frames
Codec ID : V_MPEG4/ISO/AVC
Duration : 2 h 32 min
Bit rate mode : Variable
Bit rate : 4 994 kb/s
Maximum bit rate : 8 000 kb/s
Width : 1 920 pixels
Height : 800 pixels
Display aspect ratio : 2.40:1
Frame rate mode : Constant
Frame rate : 23.976 (24000/1001) FPS
Standard : NTSC
Color space : YUV
Chroma subsampling : 4:2:0
Bit depth : 8 bits
Scan type : Progressive
Bits/(Pixel*Frame) : 0.136
Stream size : 5.32 GiB (92%)
Language : English
Default : Yes
Forced : No
Color range : Limited
Color primaries : BT.709
Transfer characteristics : BT.709
Matrix coefficients : BT.709

Audio
ID : 2
Format : AC-3
Format/Info : Audio Coding 3
Commercial name : Dolby Digital
Codec ID : A_AC3
Duration : 2 h 32 min
Bit rate mode : Constant
Bit rate : 448 kb/s
Channel(s) : 6 channels
Channel layout : L R C LFE Ls Rs
Sampling rate : 48.0 kHz
Frame rate : 31.250 FPS (1536 SPF)
Compression mode : Lossy
Stream size : 489 MiB (8%)
Language : English
Service kind : Complete Main
Default : Yes
Forced : No

Text #1
ID : 3
Format : UTF-8
Codec ID : S_TEXT/UTF8
Codec ID/Info : UTF-8 Plain Text
Duration : 2 h 26 min
Bit rate : 82 b/s
Count of elements : 1655
Stream size : 88.0 KiB (0%)
Title : blindAvocado
Language : Russian
Default : Yes
Forced : No

Text #2
ID : 4
Format : UTF-8
Codec ID : S_TEXT/UTF8
Codec ID/Info : UTF-8 Plain Text
Duration : 2 h 27 min
Bit rate : 51 b/s
Count of elements : 1642
Stream size : 55.1 KiB (0%)
Language : English
Default : No
Forced : No
Источник http://BlaTor.org

Трекер:  [ 01-Янв-2020 14:00 ]

  

Скачать .torrent

Размер .torrent файла 15 KB


Размер: 5.8 GB
Хэш (hash) релиза: 06870141a2c6d58923c3fa556e22595c72937366
Подписка на обновления:

Торренты, похожие на Ford против Ferrari Ford v Ferrari скачать торрент

Форум Название Автор Размер S L Добавлен
Зарубежные фильмы 2016-2020 (Новинки зарубежного кино) ·%· Ford против Ferrari / Ford v Ferrari (2019) WEBRip | КПК | P Galfimbul 648207214618 MB 0 0 1578495010

17:50

8-Янв-20

Зарубежные фильмы 2016-2020 (Новинки зарубежного кино) ·%· Ford против Ferrari / Ford v Ferrari (2019) WEBRip от Scarabey | HDRezka Studio Galfimbul 23434833922.18 GB 3 0 1578417020

20:10

7-Янв-20

Зарубежные фильмы 2016-2020 (Новинки зарубежного кино) ·%· Ford против Ferrari / Ford v Ferrari (2019) WEBRip-AVC от ExKinoRay | HDRezka Studio Galfimbul 35242082543.28 GB 2 0 1578417015

20:10

7-Янв-20

Зарубежные фильмы 2016-2020 (Новинки зарубежного кино) ·%· Ford против Ferrari / Ford v Ferrari (2019) WEBRip от MegaPeer | HDRezka Studio Galfimbul 15699237811.46 GB 4 0 1578328814

19:40

6-Янв-20

Зарубежные фильмы 2016-2020 (Новинки зарубежного кино) ·%· Ford против Ferrari / Ford v Ferrari (2019) WEBRip от Scarabey | Sub Galfimbul 15593144321.45 GB 2 0 1578073213

20:40

3-Янв-20

Зарубежные фильмы 2016-2020 (Новинки зарубежного кино) ·%· Ford против Ferrari / Ford v Ferrari (2019) WEBRip | Sub Galfimbul 23496958792.19 GB 0 0 1577963419

14:10

2-Янв-20

Зарубежные фильмы 2016-2020 (Новинки зарубежного кино) ·%· Ford против Ferrari / Ford v Ferrari (2019) WEBRip-AVC | Sub Galfimbul 15857824911.48 GB 0 0 1577953814

11:30

2-Янв-20

Еще никто не оставлял запись к записи скачать торрент Ford против Ferrari Ford v Ferrari . Будь первым!

!Обратная связь