Скачать порно через торрент Cum Beggars 4 UnionPeer.org бесплатно онлайн HD качество

Скачать новое порно 2015, 2014 новинки через торрент UnionPeer.org

Порно торрент бесплатно ЮнионПир.орг

Статистика раздачи
Размер:  7.24 GB   |    Зарегистрирован:  4 года 1 месяц   |    .torrent скачан:  274 раза   |   
Раздают:  1   Качают:  6  
 

Скачать Cum Beggars 4 (Pat Myne / Danny Case Productions / 3rd Degree Films) [2005, Gonzo, Sex, Anal Sex, Deep Throat, Swallow, DP, DVD9] Jenaveve Jolie, Courtney Cummz, Nadia Styles, Jamie Elle, Simone Schiffer через torrent

 
 
Автор Сообщение

Galfimbul

avatar Galfimbul


<div class="post-align" style="text-align: center;">Cum Beggars 4</div>

Название фильма: Cum Beggars 4
Год релиза: 2005
Страна: USA
Жанр: Gonzo, Sex, Anal Sex, Deep Throat, Swallow, DP
Язык 1: English
Язык 2: Español
Продолжительность: 02:09:40

Режиссер: Pat Myne (as Danny Case)
Студия / Дистрибьютер: 3rd Degree Films

Starring:
Jenaveve Jolie, Courtney Cummz, Nadia Styles, Jamie Elle, Simone Schiffer

Описание:
Cum-begging sluts are begging for your load! They''re going to get you all worked up until you''re ready to explode--in their mouth, pussy, and ass! So when you''re ready to blow your wad, blast these bitches all over their faces and tongues.

http://www.thirdmovies.com/dvds/cum-beggars-4

Качество: DVD9
Формат: DVD-Video
Видео: MPEG2 Video 720x480 (4:3) 29.97fps 5748kbps
Аудио: Dolby AC3 48000Hz stereo 192kbps

General
Format : MPEG-PS
File size : 5.67 GiB
Duration : 2 h 9 min
Overall bit rate mode : Variable
Overall bit rate : 6 257 kb/s

Video
ID : 224 (0xE0)
Format : MPEG Video
Format version : Version 2
Format profile : Main@Main
Format settings : CustomMatrix / BVOP
Format settings, BVOP : Yes
Format settings, Matrix : Custom
Format settings, GOP : M=3, N=15
Format settings, picture struc : Frame
Duration : 2 h 9 min
Bit rate mode : Variable
Bit rate : 5 748 kb/s
Maximum bit rate : 6 500 kb/s
Width : 720 pixels
Height : 480 pixels
Display aspect ratio : 4:3
Frame rate : 29.970 (30000/1001) FPS
Standard : NTSC
Color space : YUV
Chroma subsampling : 4:2:0
Bit depth : 8 bits
Scan type : Interlaced
Scan order : Top Field First
Compression mode : Lossy
Bits/(Pixel*Frame) : 0.555
Time code of first frame : 00:02:22:05
Time code source : Group of pictures header
GOP, Open/Closed : Closed
Stream size : 5.21 GiB (92%)

Audio #1
ID : 189 (0xBD)-128 (0x80)
Format : AC-3
Format/Info : Audio Coding 3
Commercial name : Dolby Digital
Muxing mode : DVD-Video
Duration : 2 h 9 min
Bit rate mode : Constant
Bit rate : 192 kb/s
Channel(s) : 2 channels
Channel layout : L R
Sampling rate : 48.0 kHz
Frame rate : 31.250 FPS (1536 SPF)
Compression mode : Lossy
Stream size : 178 MiB (3%)
Service kind : Complete Main

Audio #2
ID : 189 (0xBD)-129 (0x81)
Format : AC-3
Format/Info : Audio Coding 3
Commercial name : Dolby Digital
Muxing mode : DVD-Video
Duration : 2 h 9 min
Bit rate mode : Constant
Bit rate : 192 kb/s
Channel(s) : 2 channels
Channel layout : L R
Sampling rate : 48.0 kHz
Frame rate : 31.250 FPS (1536 SPF)
Compression mode : Lossy
Stream size : 178 MiB (3%)
Service kind : Complete Main


Внимание! AdBlock блокирует показ скриншотов, все вопросы к разработчикам )))
Трекер:  [ 02-Янв-2020 14:56 ]

  

Скачать .torrent

Размер .torrent файла 36 KB


Размер: 7.24 GB
Хэш (hash) релиза: 02a34864f0159d23f7c0fb655794a7a005d7e14e

Еще никто не оставлял запись к записи скачать торрент Cum Beggars 4 . Будь первым!

!Обратная связь