Скачать через торрент Гемини Gemini Man Фильм бесплатно в хорошем качестве torrent

Скачивайте на UnionPeer.org фильмы через торрент без регистрации. Новинки кино в хорошем качестве через торрент. На UnionPeer.org можно скачать через торрент фильмы 2014 и 2015 годов. Самые новые фильмы.

Скачать торрент Гемини Gemini Man бесплатно через .torrent фильм мультфильм сериал

Статистика раздачи
Размер:  12.18 GB   |    Зарегистрирован:  23 дня   |    .torrent скачан:  212 раз   |   
Раздают:  3   Качают:  4  
 

Скачать Гемини / Gemini Man (2019) BDRip 1080p от селезень | iTunes через torrent

 
загрузка...
 
Автор Сообщение

Galfimbul

avatar Galfimbul


Гемини /Gemini Man

Год выхода: 2019
Жанр: Фантастика, боевик, триллер, драма
Режиссер: Энг Ли
В ролях: Уилл Смит, Мэри Элизабет Уинстэд, Клайв Оуэн, Бенедикт Вонг, Дуглас Ходж, Теодора Вулли, Ральф Браун, Линда Эмонд, Андреа Суч, Илья Волох, Дэвид Моретти, Илона МакКри, Э.Дж. Бонилья, Виктор Хьюго



О фильме: Первоклассный киллер Генри Броган становится мишенью таинственного оперативника, который, кажется, знает наперёд каждый его шаг.

Страна: Китай, США
Студия: Skydance Media, Jerry Bruckheimer Films, Fosun Group Forever Pictures
Продолжительность: 01:57:00
Перевод: Дублированный | iTunes

Качество: BDRip 1080p
Видео: MPEG-4 AVC, 1920x1036, 13.9 Mbit/s, 23.976 fps
Аудио #01: 48 kHz, AC3, 5.1, 384 Kbps | iTunes | RUS |
Аудио #02: 48 kHz, AC3, 5.1, 640 Kbps | Оригинал | ENG |
Субтитры: Русские (Full), английские

General
Unique ID : 17811999183879085125410788040281283997 (0xD66775CCCC32173085E074AE0E5DD9D)
Complete name : E:Video111Gemini.Man.2019.BDRip.1080p.seleZen.mkv
Format : Matroska
Format version : Version 4
File size : 12.2 GiB
Duration : 1 h 57 min
Overall bit rate : 14.9 Mb/s
Movie name : Gemini Man 2019 from селезень
Encoded date : UTC 2020-01-02 12:02:44
Writing application : mkvmerge v40.0.0 ('Old Town Road + Pony') 64-bit
Writing library : libebml v1.3.9 + libmatroska v1.5.2

Video
ID : 1
Format : AVC
Format/Info : Advanced Video Codec
Format profile : High@L4.1
Format settings : CABAC / 4 Ref Frames
Format settings, CABAC : Yes
Format settings, Reference : 4 frames
Codec ID : V_MPEG4/ISO/AVC
Duration : 1 h 57 min
Bit rate : 13.9 Mb/s
Width : 1 920 pixels
Height : 1 036 pixels
Display aspect ratio : 1.85:1
Frame rate mode : Constant
Frame rate : 23.976 (24000/1001) FPS
Color space : YUV
Chroma subsampling : 4:2:0
Bit depth : 8 bits
Scan type : Progressive
Bits/(Pixel*Frame) : 0.291
Stream size : 11.3 GiB (93%)
Title : CHD
Writing library : x264 core 157 r2867+150 7e91e0e t_mod_Custom_2 [8-bit@all X86_64]
Encoding settings : cabac=1 / ref=4 / deblock=1:-3:-3 / analyse=0x3:0x133 / me=umh / subme=11 / psy=1 / fade_compensate=0.00 / psy_rd=0.90:0.10 / mixed_ref=1 / me_range=64 / chroma_me=1 / trellis=2 / 8x8dct=1 / cqm=0 / deadzone=21,11 / fast_pskip=0 / chroma_qp_offset=-4 / threads=32 / lookahead_threads=5 / sliced_threads=0 / nr=0 / decimate=1 / interlaced=0 / bluray_compat=0 / constrained_intra=0 / fgo=0 / bframes=8 / b_pyramid=2 / b_adapt=2 / b_bias=0 / direct=3 / weightb=1 / open_gop=0 / weightp=2 / keyint=250 / keyint_min=23 / scenecut=40 / intra_refresh=0 / rc_lookahead=60 / rc=crf / mbtree=0 / crf=18.0000 / qcomp=0.70 / qpmin=0:0:0 / qpmax=69:69:69 / qpstep=4 / vbv_maxrate=35000 / vbv_bufsize=35000 / crf_max=0.0 / nal_hrd=none / filler=0 / ip_ratio=1.40 / pb_ratio=1.30 / aq=3:1.00 / aq-sensitivity=10.00 / aq-factor=1.00:1.00:1.00 / aq2=0 / aq3=0
Language : English
Default : Yes
Forced : No

Audio #1
ID : 2
Format : AC-3
Format/Info : Audio Coding 3
Commercial name : Dolby Digital
Codec ID : A_AC3
Duration : 1 h 57 min
Bit rate mode : Constant
Bit rate : 384 kb/s
Channel(s) : 6 channels
Channel layout : L R C LFE Ls Rs
Sampling rate : 48.0 kHz
Frame rate : 31.250 FPS (1536 SPF)
Compression mode : Lossy
Stream size : 321 MiB (3%)
Title : iTunes
Language : Russian
Service kind : Complete Main
Default : Yes
Forced : Yes

Audio #2
ID : 3
Format : AC-3
Format/Info : Audio Coding 3
Commercial name : Dolby Digital
Codec ID : A_AC3
Duration : 1 h 57 min
Bit rate mode : Constant
Bit rate : 640 kb/s
Channel(s) : 6 channels
Channel layout : L R C LFE Ls Rs
Sampling rate : 48.0 kHz
Frame rate : 31.250 FPS (1536 SPF)
Compression mode : Lossy
Stream size : 536 MiB (4%)
Title : Original
Language : English
Service kind : Complete Main
Default : No
Forced : No

Text #1
ID : 4
Format : UTF-8
Codec ID : S_TEXT/UTF8
Codec ID/Info : UTF-8 Plain Text
Duration : 1 h 55 min
Bit rate : 69 b/s
Count of elements : 1336
Stream size : 59.1 KiB (0%)
Title : Full
Language : Russian
Default : No
Forced : No

Text #2
ID : 5
Format : UTF-8
Codec ID : S_TEXT/UTF8
Codec ID/Info : UTF-8 Plain Text
Duration : 1 h 45 min
Bit rate : 49 b/s
Count of elements : 1356
Stream size : 38.5 KiB (0%)
Title : Full
Language : English
Default : No
Forced : No

Menu
00:00:00.000 : en:Глава 01
00:07:21.650 : en:Глава 02
00:15:31.681 : en:Глава 03
00:18:13.134 : en:Глава 04
00:24:39.520 : en:Глава 05
00:30:59.441 : en:Глава 06
00:34:09.464 : en:Глава 07
00:42:40.308 : en:Глава 08
00:50:24.897 : en:Глава 09
00:56:45.819 : en:Глава 10
01:03:30.306 : en:Глава 11
01:08:13.172 : en:Глава 12
01:16:45.935 : en:Глава 13
01:24:43.996 : en:Глава 14
01:30:04.733 : en:Глава 15
01:34:00.927 : en:Глава 16
01:42:14.462 : en:Глава 17
01:47:07.588 : en:Глава 18
Источник http://BlaTor.org

Трекер:  [ 02-Янв-2020 15:30 ]

  

Скачать .torrent

Размер .torrent файла 15 KB


Размер: 12.18 GB
Хэш (hash) релиза: 44b30ee0045c6f973cb40bb41c084303ebd2c3d0
Подписка на обновления:

Торренты, похожие на Гемини Gemini Man скачать торрент

Форум Название Автор Размер S L Добавлен
Зарубежные фильмы 2016-2020 (Новинки зарубежного кино) ·%· Гемини / Gemini Man (2019) BDRip 720p от k.e.n & MegaPeer | D | iTunes Galfimbul 46390808454.32 GB 0 0 1578459615

08:00

8-Янв-20

Зарубежные фильмы 2016-2020 (Новинки зарубежного кино) ·%· Гемини / Gemini Man (2019) UHD BDRemux 2160p от BlueBird | 4K | HDR | Dolby Vision TV | 60 fps | iTunes Galfimbul 8456187020278.75 GB 0 0 1578408020

17:40

7-Янв-20

Зарубежные фильмы 2016-2020 (Новинки зарубежного кино) ·%· Гемини / Gemini Man (2019) UHD BDRemux 2160p от селезень | 4K | HDR | Dolby Vision | 60 fps | HFR | iTunes Galfimbul 8266735704276.99 GB 0 0 1578247825

21:10

5-Янв-20

Зарубежные фильмы 2016-2020 (Новинки зарубежного кино) ·%· Гемини / Gemini Man (2019) HDRip от Portablius | iTunes Galfimbul 834697216796 MB 0 0 1578230410

16:20

5-Янв-20

Зарубежные фильмы 2016-2020 (Новинки зарубежного кино) ·%· Гемини / Gemini Man (2019) BDRip-HEVC 1080p от HEVC-CLUB | iTunes Galfimbul 71650330266.67 GB 0 0 1578213609

11:40

5-Янв-20

Зарубежные фильмы 2016-2020 (Новинки зарубежного кино) ·%· Гемини / Gemini Man (2019) BDRip-AVC от ExKinoRay | iTunes Galfimbul 780274936744 MB 0 0 1578203413

08:50

5-Янв-20

Зарубежные фильмы 2016-2020 (Новинки зарубежного кино) ·%· Гемини / Gemini Man (2019) BDRip-AVC от ExKinoRay | iTunes Galfimbul 21654435872.02 GB 0 0 1578146412

17:00

4-Янв-20

Зарубежные фильмы 2016-2020 (Новинки зарубежного кино) ·%· Гемини / Gemini Man (2019) BDRip от Twister & ExKinoRay | iTunes Galfimbul 15174510881.41 GB 0 0 1578090615

01:30

4-Янв-20

Зарубежные фильмы 2016-2020 (Новинки зарубежного кино) ·%· Гемини / Gemini Man (2019) BDRip от Twister & ExKinoRay | iTunes Galfimbul 22882544862.13 GB 0 0 1578090609

01:30

4-Янв-20

Зарубежные фильмы 2016-2020 (Новинки зарубежного кино) ·%· Гемини / Gemini Man (2019) BDRemux 2160p | HDR | iTunes Galfimbul 7573958976770.54 GB 0 0 1578078009

22:00

3-Янв-20

Зарубежные фильмы 2016-2020 (Новинки зарубежного кино) ·%· Гемини / Gemini Man (2019) HDRip от Scarabey | iTunes Galfimbul 15531704321.45 GB 0 0 1578072014

20:20

3-Янв-20

Зарубежные фильмы 2016-2020 (Новинки зарубежного кино) ·%· Гемини / Gemini Man (2019) BDRip-AVC от OlLanDGroup | iTunes Galfimbul 14586397111.36 GB 2 0 1578055208

15:40

3-Янв-20

Зарубежные фильмы 2016-2020 (Новинки зарубежного кино) ·%· Гемини / Gemini Man (2019) BDRip 720p от селезень | iTunes Galfimbul 61659415895.74 GB 2 0 1577977815

18:10

2-Янв-20

Зарубежные фильмы 2016-2020 (Новинки зарубежного кино) ·%· Гемини / Gemini Man (2019) BDRip от MegaPeer | iTunes Galfimbul 22889591412.13 GB 0 0 1577974209

17:10

2-Янв-20

Зарубежные фильмы 2016-2020 (Новинки зарубежного кино) ·%· Гемини / Gemini Man (2019) BDRemux 1080p от селезень | iTunes Galfimbul 2845464230326.5 GB 0 0 1577957412

12:30

2-Янв-20

Зарубежные фильмы 2016-2020 (Новинки зарубежного кино) ·%· Гемини / Gemini Man (2019) WEB-DL 1080p от Scarabey | iTunes Galfimbul 60284151795.61 GB 0 0 1577916630

01:10

2-Янв-20

Зарубежные фильмы 2016-2020 (Новинки зарубежного кино) ·%· Гемини / Gemini Man (2019) WEB-DLRip-AVC от OlLanDGroup | D Galfimbul 14570752201.36 GB 0 0 1576801812

03:30

20-Дек-19

Зарубежные фильмы 2016-2020 (Новинки зарубежного кино) ·%· Гемини / Gemini Man (2019) WEB-DLRip от MegaPeer | D Galfimbul 15682949121.46 GB 0 0 1576761611

16:20

19-Дек-19

Зарубежные фильмы 2016-2020 (Новинки зарубежного кино) ·%· Гемини / Gemini Man (2019) WEB-DLRip-AVC | D Galfimbul 10532488351004 MB 0 0 1576696225

22:10

18-Дек-19

Еще никто не оставлял запись к записи скачать торрент Гемини Gemini Man . Будь первым!

!Обратная связь