Скачать через торрент Джон Уик 2 John Wick: Chapter Two Фильм бесплатно в хорошем качестве torrent

Скачивайте на UnionPeer.org фильмы через торрент без регистрации. Новинки кино в хорошем качестве через торрент. На UnionPeer.org можно скачать через торрент фильмы 2014 и 2015 годов. Самые новые фильмы.

Скачать торрент Джон Уик 2 John Wick: Chapter Two бесплатно через .torrent фильм мультфильм сериал

Статистика раздачи
Размер:  6.16 GB   |    Зарегистрирован:  4 года 2 месяца   |    .torrent скачан:  21 раз   |   
Раздают:  1  
 

Скачать Джон Уик 2 / John Wick: Chapter Two (2017) BDRip-HEVC 1080p | D | Лицензия через torrent

 
 
Автор Сообщение

Galfimbul

avatar Galfimbul


Название: Джон Уик 2 [url=/tag/1/][/url]
Оригинальное название: John Wick: Chapter Two [url=/tag/1/][/url]
Год выхода: 2017 [url=/tag/1/][/url]
Производство: США / Lionsgate, Summit Entertainment, Thunder Road, 87Eleven [url=/tag/1/][/url]
Жанр: Боевик, криминал,триллер [url=/tag/1/][/url]
Перевод: Дублированный | Лицензия [url=/tag/1/][/url]
Продолжительность: 02:02:22 [url=/tag/1/][/url]
[url=/tag/1/][/url]
Режиссер: Чад Стахелски [url=/tag/1/][/url]
В ролях: Киану Ривз, Риккардо Скамарчио, Иэн МакШейн, Руби Роуз, Клаудия Джерини, Лэнс Реддик, Лоренс Фишбёрн, Тобиаш Сигал [url=/tag/1/][/url]
[url=/tag/1/][/url]
Описание: Когда бывший коллега Джона решает взять под свой контроль таинственную гильдию убийц, Уик вынужден выйти из отставки. Ведомый кровавой клятвой Джон отправляется в Рим, где ему придется сразиться с одними из самых опасных киллеров в мире... [url=/tag/1/][/url]
[url=/tag/1/][/url]
Формат: MKV [url=/tag/1/][/url]
Качество: BDRip-HEVC 1080p [url=/tag/1/][/url]
Видео : HEVC/X.265, 1920x800, ~6312 kb/s, 10 bit [url=/tag/1/][/url]
Аудио 01: AC3, 6 ch, 448 Kbps - Русский дублированный (Лицензия) [url=/tag/1/][/url]
Аудио 02: AC3, 6 ch, 448 Kbps - Английский [url=/tag/1/][/url]
[url=/tag/1/][/url]
Субтитры: Русские, английские [url=/tag/1/][/url]
[url=/tag/1/][/url]
[url=/tag/1/][/url]
[url=/tag/1/][/url]
[url=/tag/1/][/url]
General [url=/tag/1/][/url]
Unique ID : 321326159859486236551084274524867280374 (0xF1BD2AD56839EB105BA4541A40103DF6) [url=/tag/1/][/url]
Complete name : D:Download John Wick Chapter Two (2017) BDRip 1080p [HEVC] 10bit.mkv [url=/tag/1/][/url]
Format : Matroska [url=/tag/1/][/url]
Format version : Version 4 [url=/tag/1/][/url]
File size : 6.16 GiB [url=/tag/1/][/url]
Duration : 2 h 2 min [url=/tag/1/][/url]
Overall bit rate : 7 210 kb/s [url=/tag/1/][/url]
Movie name : Джон Уик 2 [url=/tag/1/][/url]
Deion : Когда бывший коллега Джона решает взять под свой контроль таинственную гильдию убийц, Уик вынужден выйти из отставки. Ведомый кровавой клятвой Джон отправляется в Рим, где ему придется сразиться с одними из самых опасных киллеров в мире. [url=/tag/1/][/url]
Encoded date : UTC 2020-01-02 17:26:16 [url=/tag/1/][/url]
Writing application : mkvmerge v40.0.0 ('Old Town Road + Pony') 64-bit [url=/tag/1/][/url]
Writing library : libebml v1.3.9 + libmatroska v1.5.2 / Lavf57.71.100 [url=/tag/1/][/url]
Attachments : poster.jpg [url=/tag/1/][/url]
SYNOPSIS : Когда бывший коллега Джона решает взять под свой контроль таинственную гильдию убийц, Уик вынужден выйти из отставки. Ведомый кровавой клятвой Джон отправляется в Рим, где ему придется сразиться с одними из самых опасных киллеров в мире. [url=/tag/1/][/url]
[url=/tag/1/][/url]
Video [url=/tag/1/][/url]
ID : 1 [url=/tag/1/][/url]
Format : HEVC [url=/tag/1/][/url]
Format/Info : High Efficiency Video Coding [url=/tag/1/][/url]
Format profile : Main [email protected]@High [url=/tag/1/][/url]
Codec ID : V_MPEGH/ISO/HEVC [url=/tag/1/][/url]
Duration : 2 h 2 min [url=/tag/1/][/url]
Bit rate : 6 312 kb/s [url=/tag/1/][/url]
Width : 1 920 pixels [url=/tag/1/][/url]
Height : 800 pixels [url=/tag/1/][/url]
Display aspect ratio : 2.40:1 [url=/tag/1/][/url]
Frame rate mode : Constant [url=/tag/1/][/url]
Frame rate : 23.976 (24000/1001) FPS [url=/tag/1/][/url]
Color space : YUV [url=/tag/1/][/url]
Chroma subsampling : 4:2:0 [url=/tag/1/][/url]
Bit depth : 10 bits [url=/tag/1/][/url]
Bits/(Pixel*Frame) : 0.171 [url=/tag/1/][/url]
Stream size : 5.40 GiB (88%) [url=/tag/1/][/url]
Writing library : x265 3.1+7-147fb92c5ed5:[Windows][clang 8.0.0][64 bit] 10bit [url=/tag/1/][/url]
Encoding settings : cpuid=1111039 / frame-threads=13 / wpp / no-pmode / no-pme / no-psnr / no-ssim / log-level=3 / input-csp=1 / input-res=1920x800 / interlace=0 / total-frames=0 / level-idc=41 / high-tier=1 / uhd-bd=0 / ref=5 / allow-non-conformance / no-repeat-headers / annexb / no-aud / no-hrd / info / hash=0 / no-temporal-layers / open-gop / min-keyint=23 / keyint=240 / gop-lookahead=0 / bframes=8 / b-adapt=2 / b-pyramid / bframe-bias=0 / rc-lookahead=60 / lookahead-slices=4 / scenecut=40 / radl=0 / no-splice / no-intra-refresh / ctu=64 / min-cu-size=8 / rect / amp / max-tu-size=32 / tu-inter-depth=4 / tu-intra-depth=4 / limit-tu=0 / rdoq-level=2 / dynamic-rd=0.00 / no-ssim-rd / signhide / no-tskip / nr-intra=0 / nr-inter=0 / no-constrained-intra / no-strong-intra-smoothing / max-merge=5 / limit-refs=2 / limit-modes / me=3 / subme=7 / merange=57 / temporal-mvp / no-hme / weightp / weightb / no-analyze-src-pics / deblock=-3:-3 / no-sao / no-sao-non-deblock / rd=6 / early-skip / no-rskip / no-fast-intra / no-tskip-fast / no-cu-lossless / b-intra / no-splitrd-skip / rdpenalty=0 / psy-rd=2.00 / psy-rdoq=1.00 / no-rd-refine / no-lossless / cbqpoffs=0 / crqpoffs=0 / rc=crf / crf=19.0 / qcomp=0.60 / qpstep=4 / stats-write=0 / stats-read=0 / vbv-maxrate=50000 / vbv-bufsize=50000 / vbv-init=0.9 / crf-max=30.0 / crf-min=0.0 / ipratio=1.40 / pbratio=1.30 / aq-mode=2 / aq-strength=1.00 / no-cutree / zone-count=0 / no-strict-cbr / qg-size=32 / no-rc-grain / qpmax=69 / qpmin=0 / no-const-vbv / sar=1 / overscan=0 / videoformat=5 / range=0 / colorprim=1 / transfer=1 / colormatrix=1 / chromaloc=0 / display-window=0cll=0,0 / min-luma=0 / max-luma=1023 / log2-max-poc-lsb=8 / vui-timing-info / vui-hrd-info / slices=1 / no-opt-qp-pps / no-opt-ref-list-length-pps / no-multi-pass-opt-rps / scenecut-bias=0.05 / no-opt-cu-delta-qp / no-aq-motion / no-hdr / no-hdr-opt / no-dhdr10-opt / no-idr-recovery-sei / analysis-reuse-level=5 / scale-factor=0 / refine-intra=0 / refine-inter=0 / refine-mv=0 / refine-ctu-distortion=0 / no-limit-sao / ctu-info=0 / no-lowpass-dct / refine-analysis-type=8 / copy-pic=1 / max-ausize-factor=1.0 / no-dynamic-refine / no-single-sei / no-hevc-aq / no-svt / no-field / qp-adaptation-range=1.00 [url=/tag/1/][/url]
Language : English [url=/tag/1/][/url]
Default : Yes [url=/tag/1/][/url]
Forced : No [url=/tag/1/][/url]
Color range : Limited [url=/tag/1/][/url]
Color primaries : BT.709 [url=/tag/1/][/url]
Transfer characteristics : BT.709 [url=/tag/1/][/url]
Matrix coefficients : BT.709 [url=/tag/1/][/url]
[url=/tag/1/][/url]
Audio #1 [url=/tag/1/][/url]
ID : 2 [url=/tag/1/][/url]
Format : AC-3 [url=/tag/1/][/url]
Format/Info : Audio Coding 3 [url=/tag/1/][/url]
Commercial name : Dolby Digital [url=/tag/1/][/url]
Codec ID : A_AC3 [url=/tag/1/][/url]
Duration : 2 h 2 min [url=/tag/1/][/url]
Bit rate mode : Constant [url=/tag/1/][/url]
Bit rate : 448 kb/s [url=/tag/1/][/url]
Channel(s) : 6 channels [url=/tag/1/][/url]
Channel layout : L R C LFE Ls Rs [url=/tag/1/][/url]
Sampling rate : 48.0 kHz [url=/tag/1/][/url]
Frame rate : 31.250 FPS (1536 SPF) [url=/tag/1/][/url]
Compression mode : Lossy [url=/tag/1/][/url]
Stream size : 392 MiB (6%) [url=/tag/1/][/url]
Title : Dub (Лицензия) [url=/tag/1/][/url]
Language : Russian [url=/tag/1/][/url]
Service kind : Complete Main [url=/tag/1/][/url]
Default : Yes [url=/tag/1/][/url]
Forced : No [url=/tag/1/][/url]
[url=/tag/1/][/url]
Audio #2 [url=/tag/1/][/url]
ID : 3 [url=/tag/1/][/url]
Format : AC-3 [url=/tag/1/][/url]
Format/Info : Audio Coding 3 [url=/tag/1/][/url]
Commercial name : Dolby Digital [url=/tag/1/][/url]
Codec ID : A_AC3 [url=/tag/1/][/url]
Duration : 2 h 2 min [url=/tag/1/][/url]
Bit rate mode : Constant [url=/tag/1/][/url]
Bit rate : 448 kb/s [url=/tag/1/][/url]
Channel(s) : 6 channels [url=/tag/1/][/url]
Channel layout : L R C LFE Ls Rs [url=/tag/1/][/url]
Sampling rate : 48.0 kHz [url=/tag/1/][/url]
Frame rate : 31.250 FPS (1536 SPF) [url=/tag/1/][/url]
Compression mode : Lossy [url=/tag/1/][/url]
Stream size : 392 MiB (6%) [url=/tag/1/][/url]
Language : English [url=/tag/1/][/url]
Service kind : Complete Main [url=/tag/1/][/url]
Default : No [url=/tag/1/][/url]
Forced : No [url=/tag/1/][/url]
[url=/tag/1/][/url]
Text #1 [url=/tag/1/][/url]
ID : 4 [url=/tag/1/][/url]
Format : UTF-8 [url=/tag/1/][/url]
Codec ID : S_TEXT/UTF8 [url=/tag/1/][/url]
Codec ID/Info : UTF-8 Plain Text [url=/tag/1/][/url]
Duration : 1 h 53 min [url=/tag/1/][/url]
Bit rate : 37 b/s [url=/tag/1/][/url]
Count of elements : 501 [url=/tag/1/][/url]
Stream size : 31.0 KiB (0%) [url=/tag/1/][/url]
Language : Russian [url=/tag/1/][/url]
Default : No [url=/tag/1/][/url]
Forced : No [url=/tag/1/][/url]
[url=/tag/1/][/url]
Text #2 [url=/tag/1/][/url]
ID : 5 [url=/tag/1/][/url]
Format : UTF-8 [url=/tag/1/][/url]
Codec ID : S_TEXT/UTF8 [url=/tag/1/][/url]
Codec ID/Info : UTF-8 Plain Text [url=/tag/1/][/url]
Duration : 1 h 49 min [url=/tag/1/][/url]
Bit rate : 21 b/s [url=/tag/1/][/url]
Count of elements : 658 [url=/tag/1/][/url]
Stream size : 17.2 KiB (0%) [url=/tag/1/][/url]
Language : English [url=/tag/1/][/url]
Default : No [url=/tag/1/][/url]
Forced : No [url=/tag/1/][/url]
[url=/tag/1/][/url]
Menu [url=/tag/1/][/url]
00:00:00.000 : :Chapter 1 [url=/tag/1/][/url]
00:06:31.683 : :Chapter 2 [url=/tag/1/][/url]
00:16:57.934 : :Chapter 3 [url=/tag/1/][/url]
00:26:35.594 : :Chapter 4 [url=/tag/1/][/url]
00:34:38.034 : :Chapter 5 [url=/tag/1/][/url]
00:42:07.817 : :Chapter 6 [url=/tag/1/][/url]
00:48:07.051 : :Chapter 7 [url=/tag/1/][/url]
00:56:41.648 : :Chapter 8 [url=/tag/1/][/url]
01:01:42.782 : :Chapter 9 [url=/tag/1/][/url]
01:10:27.682 : :Chapter 10 [url=/tag/1/][/url]
01:17:15.923 : :Chapter 11 [url=/tag/1/][/url]
01:24:22.641 : :Chapter 12 [url=/tag/1/][/url]
01:32:11.234 : :Chapter 13 [url=/tag/1/][/url]
01:40:01.329 : :Chapter 14 [url=/tag/1/][/url]
01:46:34.763 : :Chapter 15 [url=/tag/1/][/url]
01:54:01.042 : :Chapter 16
[url=/tag/1/][/url]
[url=/tag/1/][/url]
[url=/tag/1/][/url]
Источник http://BlaTor.org

Внимание! AdBlock блокирует показ скриншотов, все вопросы к разработчикам )))
Трекер:  [ 03-Янв-2020 00:50 ]

  

Скачать .torrent

Размер .torrent файла 16 KB


Размер: 6.16 GB
Хэш (hash) релиза: 5d31b072c6e2be386d8e84c674fb4238eb8702a1
Подписка на обновления:

Торренты, похожие на Джон Уик 2 John Wick: Chapter Two скачать торрент

Форум Название Автор Размер S L Добавлен
Зарубежные фильмы 2016-2019 (Новинки зарубежного кино) ·· Джон Уик 2 / John Wick: Chapter Two (2017) BDRip-HEVC 1080p | D, A | Лицензия Galfimbul 83804688357.8 GB 0 0 1580627412

10:10

2-Фев-20

Зарубежные фильмы 2016-2019 (Новинки зарубежного кино) ·· Джон Уик 2 / John Wick: Chapter Two (Чад Стахелски / Chad Stahelski) [2017, США, боевик, криминал, триллер, BDRip] AVO (Юрий Живов) + Original Eng Galfimbul 23325614082.17 GB 0 0 1512799274

09:01

9-Дек-17

Зарубежные фильмы 2016-2019 (Новинки зарубежного кино) ·· Джон Уик 2 / John Wick: Chapter Two (Чад Стахелски / Chad Stahelski) [2017, США, Гонконг, боевик, триллер, криминал, BDRip] Dub (EUR) + Original Eng + subs (Rus, Eng) Galfimbul 23438804932.18 GB 0 0 1510594225

20:30

13-Ноя-17

Зарубежные фильмы 2016-2019 (Новинки зарубежного кино) ·· Джон Уик 2 / John Wick: Chapter Two (Чад Стахелски / Chad Stahelski) [2017, США, боевик, триллер, криминал, BDRip-AVC] Dub + Sub Rus Galfimbul 781715074746 MB 0 0 1509546638

17:30

1-Ноя-17

Зарубежные фильмы 2016-2019 (Новинки зарубежного кино) ·· Джон Уик 2 / John Wick: Chapter Two (Чад Стахелски / Chad Stahelski) [2017, США, боевик, триллер, криминал, BDRip] D, A | iTunes Galfimbul 22855787692.13 GB 0 0 1504264231

14:10

1-Сен-17

Зарубежные фильмы 2016-2019 (Новинки зарубежного кино) ·· Джон Уик 2 / John Wick: Chapter Two (Чад Стахелски / Chad Stahelski) [2017, США, боевик, триллер, криминал, BDRip] iTunes Galfimbul 15685821611.46 GB 0 0 1504264217

14:10

1-Сен-17

Зарубежные фильмы до 2016 ·· Джон Уик 2 / John Wick: Chapter Two (Чад Стахелски / Chad Stahelski) [2017, США, боевик, триллер, криминал, BDRip 720p] Dub (iTunes) + Sub Rus, Eng + Original Eng Galfimbul 78906315957.35 GB 0 0 1497534086

16:41

15-Июн-17

Зарубежные фильмы 2016-2019 (Новинки зарубежного кино) ·· Джон Уик 2 / John Wick: Chapter Two (Чад Стахелски / Chad Stahelski) [2017, США, Боевик, триллер, криминал, BDRip-AVC] Dub + Sub Rus, Eng + Original Eng Galfimbul 35310602223.29 GB 0 0 1497330080

08:01

13-Июн-17

Зарубежные фильмы 2016-2019 (Новинки зарубежного кино) ·· Джон Уик 2 / John Wick: Chapter Two (Чад Стахелски / Chad Stahelski) [2017, США, Боевик, триллер, криминал, BDRip-AVC] Dub + Original (Eng) + Subs (Rus, Eng) Galfimbul 17193322931.6 GB 0 0 1496955702

00:01

9-Июн-17

Зарубежные фильмы 2016-2019 (Новинки зарубежного кино) ·· Джон Уик 2 / John Wick: Chapter Two (Чад Стахелски / Chad Stahelski) [2017, США, Боевик, триллер, криминал, BDRip-AVC] Dub + Original (Eng) + Subs (Rus, Eng) Galfimbul 17192154681.6 GB 0 0 1496567311

12:08

4-Июн-17

Зарубежные фильмы 2016-2019 (Новинки зарубежного кино) ·· Джон Уик 2 / John Wick: Chapter Two (Чад Стахелски / Chad Stahelski) [2017, США, Боевик, триллер, криминал, HDRip-AVC] Dub (iTunes) + Original (Eng) + Subs (Rus, Eng) Galfimbul 16248898311.51 GB 0 0 1496473820

10:10

3-Июн-17

Зарубежные фильмы 2016-2019 (Новинки зарубежного кино) ·· Джон Уик 2 / John Wick: Chapter Two (Чад Стахелски / Chad Stahelski) [2017, США, Боевик, триллер, криминал, BDRip 720p] iTunes Galfimbul 55295665595.15 GB 0 0 1496299613

09:46

1-Июн-17

Зарубежные фильмы 2016-2019 (Новинки зарубежного кино) ·· Джон Уик 2 / John Wick: Chapter Two (Чад Стахелски / Chad Stahelski) [2017, США, Боевик, триллер, криминал, BDRip 1080p] iTunes Galfimbul 88804924348.27 GB 0 0 1496279411

04:10

1-Июн-17

Зарубежные фильмы 2016-2019 (Новинки зарубежного кино) ·· Джон Уик 2 / John Wick: Chapter Two (Чад Стахелски / Chad Stahelski) [2017, США, Боевик, триллер, криминал, WEB-DLRip] Dub (iTunes) Galfimbul 15660503041.46 GB 0 0 1495528780

11:39

23-Май-17

Зарубежные фильмы 2016-2019 (Новинки зарубежного кино) ·· Джон Уик 2 / John Wick: Chapter Two (Чад Стахелски / Chad Stahelski) [2017, США, боевик, триллер, криминал, WEB-DLRip] Dub (iTunes) Galfimbul 781205504745 MB 0 0 1495528774

11:39

23-Май-17

Зарубежные фильмы 2016-2019 (Новинки зарубежного кино) ·· Джон Уик 2 / John Wick: Chapter Two (Чад Стахелски / Chad Stahelski) [2017, США, боевик, триллер, криминал, WEB-DLRip-AVC] Dub Galfimbul 14912480061.39 GB 0 0 1495511806

06:56

23-Май-17

Зарубежные фильмы 2016-2019 (Новинки зарубежного кино) ·· Джон Уик 2 / John Wick: Chapter Two (Чад Стахелски) [2017 г., боевик, триллер, криминал, WEB-DL 720р] iTunes Galfimbul 38887929763.62 GB 0 0 1495510867

06:41

23-Май-17

Зарубежные фильмы 2016-2019 (Новинки зарубежного кино) ·· Джон Уик 2 / John Wick: Chapter Two (Чад Стахелски) [2017 г., боевик, триллер, криминал, WEB-DLRip] iTunes Galfimbul 15681658881.46 GB 0 0 1495485727

23:42

22-Май-17

Зарубежные фильмы 2016-2019 (Новинки зарубежного кино) ·· Джон Уик 2 / John Wick: Chapter Two (Чад Стахелски) [2017 г., боевик, триллер, криминал, WEB-DL 1080p] iTunes Galfimbul 43574532124.06 GB 0 0 1495481980

22:39

22-Май-17

Еще никто не оставлял запись к записи скачать торрент Джон Уик 2 John Wick: Chapter Two . Будь первым!

!Обратная связь