Скачать порно через торрент Briana Banks Is A Squirt Girl Сквиртующая Briana Banks UnionPeer.org бесплатно онлайн HD качество

Скачать новое порно 2015, 2014 новинки через торрент UnionPeer.org

Порно торрент бесплатно ЮнионПир.орг

Статистика раздачи
Размер:  1.8 GB   |    Зарегистрирован:  4 года 1 месяц   |    .torrent скачан:  550 раз   |   
Раздают:  1   Качают:  4  
 

Скачать Briana Banks Is A Squirt Girl / Сквиртующая Briana Banks (Jim Powers / Powersville) [2009 г., Gonzo, Squirting, Anal, DVDRip] Briana Banks, Dru Berrymore, Candy Cotton, Kat Langer через torrent

 
 
Автор Сообщение

Galfimbul

avatar Galfimbul


<div class="post-align" style="text-align: center;">Briana Banks Is A Squirt Girl</div>

Год релиза: 2009 г.
Страна: USA
Жанр: Gonzo, Squirting, Anal
Продолжительность:01:25:13
Язык: English

Режиссер: Jim Powers
Студия: Powersville

В ролях: Briana Banks, Dru Berrymore, Candy Cotton, Kat Langer

Описание:
Superstar Briana Banks is showing her squirting masterpiece on film for the first time ever. It also stars Dru Berrymore, Kat Langer, and Candy Cotton. They are squirting their cunt juices all over the place. Ass fucking makes Dru squirt-hard as hell! Briana takes it up the ass and wants her bitch to make her squirt. Kat performs a rare triple penetration (that''s THREE cocks at once). And Candy enjoys roof side fucking from a bald ass sex symbol. You assed for it, so we gave it to you!

Спасибо Gora72 за исходник-оригинал

Качество: DVDRip
Формат: MKV
Видео: MPEG4 Video (H264) 640x480 59.94fps 29.97fps 2824kbps
Аудио: Dolby AC3 48000Hz stereo 192kbps

General
Unique ID : 249724071151872972975470916989630839425 (0xBBDF1B4D308227358957822E9B007A81)
Complete name : D:\Downloads\Briana Banks Is A Squirt Girl [erzsebet®...] DVDRip.mkv
Format : Matroska
Format version : Version 4
File size : 1.80 GiB
Duration : 1 h 25 min
Overall bit rate : 3 019 kb/s
Movie name : Briana Banks Is A Squirt Girl [erzsebet®...]
Encoded date : UTC 2020-01-05 05:13:15
Writing application : mkvmerge v15.0.0 (''Duel with the Devil'') 64-bit
Writing library : libebml v1.3.5 + libmatroska v1.4.5

Video
ID : 1
Format : AVC
Format/Info : Advanced Video Codec
Format profile : [email protected]
Format settings : CABAC / 8 Ref Frames
Format settings, CABAC : Yes
Format settings, Reference fra : 8 frames
Codec ID : V_MPEG4/ISO/AVC
Duration : 1 h 25 min
Bit rate : 2 824 kb/s
Width : 640 pixels
Height : 480 pixels
Display aspect ratio : 4:3
Frame rate mode : Constant
Frame rate : 59.940 (60000/1001) FPS
Color space : YUV
Chroma subsampling : 4:2:0
Bit depth : 8 bits
Scan type : Progressive
Bits/(Pixel*Frame) : 0.153
Stream size : 1.68 GiB (94%)
Writing library : x264 core 142 r2479 dd79a61
Encoding settings : cabac=1 / ref=8 / deblock=1:-1:-1 / analyse=0x3:0x133 / me=umh / subme=9 / psy=1 / psy_rd=1.00:0.15 / mixed_ref=1 / me_range=16 / chroma_me=1 / trellis=2 / 8x8dct=1 / cqm=0 / deadzone=21,11 / fast_pskip=1 / chroma_qp_offset=-3 / threads=6 / lookahead_threads=1 / sliced_threads=0 / nr=0 / decimate=1 / interlaced=0 / bluray_compat=0 / constrained_intra=0 / bframes=3 / b_pyramid=2 / b_adapt=2 / b_bias=0 / direct=3 / weightb=1 / open_gop=0 / weightp=2 / keyint=600 / keyint_min=60 / scenecut=40 / intra_refresh=0 / rc_lookahead=60 / rc=2pass / mbtree=1 / bitrate=2824 / ratetol=1.0 / qcomp=0.60 / qpmin=0 / qpmax=69 / qpstep=4 / cplxblur=20.0 / qblur=0.5 / vbv_maxrate=62500 / vbv_bufsize=78125 / nal_hrd=none / filler=0 / ip_ratio=1.40 / aq=1:1.00
Language : English
Default : Yes
Forced : No
Color range : Limited
Color primaries : BT.601 NTSC
Transfer characteristics : BT.709
Matrix coefficients : BT.601

Audio
ID : 2
Format : AC-3
Format/Info : Audio Coding 3
Commercial name : Dolby Digital
Codec ID : A_AC3
Duration : 1 h 25 min
Bit rate mode : Constant
Bit rate : 192 kb/s
Channel(s) : 2 channels
Channel layout : L R
Sampling rate : 48.0 kHz
Frame rate : 31.250 FPS (1536 SPF)
Compression mode : Lossy
Stream size : 117 MiB (6%)
Title : Original
Language : English
Service kind : Complete Main
Default : Yes
Forced : No

Menu
00:00:00.000 : :Chapter 1
00:01:41.217 : :Chapter 2
00:22:48.684 : :Chapter 3
00:42:38.973 : :Chapter 4
01:04:03.456 : :Chapter 5


Внимание! AdBlock блокирует показ скриншотов, все вопросы к разработчикам )))
Трекер:  [ 05-Янв-2020 08:40 ]

  

Скачать .torrent

Размер .torrent файла 9 KB


Размер: 1.8 GB
Хэш (hash) релиза: 86be6a292e39ba9fdc79db9cb0b2fcd1eaba5f46

Торренты, похожие на Briana Banks Is A Squirt Girl Сквиртующая Briana Banks скачать торрент

Форум Название Автор Размер S L Добавлен
Гонзо, Лесбо и Фильмы без сюжета (DVD) / Gonzo, All Girl & Solo, All Sex (DVD) ·· Briana Banks Is A Squirt Girl / Бриана Бэнкс - Девушка Сквирта (Jim Powers, Powersville) [2009 г., Gonzo,Squirting,Anal, DVD9][Briana Banks] Galfimbul 70955171846.61 GB 0 0 1478903689

01:34

12-Ноя-16

Гонзо-фильмы 2011-2022 / Gonzo 2011-2022 ·· Briana Banks Is A Squirt Girl / Бриана Бэнкс - Девушка Сквирта (Jim Powers, Powersville Inc.) [2009 г., Gonzo, Squirting, DVDRip] Galfimbul 731961344698 MB 0 0 1405613081

19:04

17-Июл-14

Еще никто не оставлял запись к записи скачать торрент Briana Banks Is A Squirt Girl Сквиртующая Briana Banks . Будь первым!

!Обратная связь