Скачать через торрент Пароль: Хаус H0us3 Фильм бесплатно в хорошем качестве torrent

Скачивайте на UnionPeer.org фильмы через торрент без регистрации. Новинки кино в хорошем качестве через торрент. На UnionPeer.org можно скачать через торрент фильмы 2014 и 2015 годов. Самые новые фильмы.

Скачать торрент Пароль: Хаус H0us3 бесплатно через .torrent фильм мультфильм сериал

Статистика раздачи
Размер:  3.55 GB   |    Зарегистрирован:  7 месяцев   |    .torrent скачан:  201 раз   |   
Раздают:  1  
 

Скачать Пароль: Хаус / H0us3 (2018) WEB-DL 1080p от селезень | iTunes через torrent

 
Sprinthost
загрузка...
 
Автор Сообщение

Galfimbul ghost

avatar Galfimbul ghost


Пароль: Хаус /H0us3

Год выхода: 2018
Жанр: Ужасы, фантастика, триллер
Режиссер: Маноло Мунгуйя
В ролях: Мириам Тортоза, Мариона Тена, Бернат Местре, Анна Бертран, Виктор Гомес, Рок Эсквиус, Диана Ройг, Рубен Серрано, Кристина Райя, Мариола Фустер



О фильме: Рафа и Люсия приглашают компанию своих бывших однокурсников провести уикенд в их загородном доме. Тишина и шикарные виды, вино, веселые воспоминания... Во время ужина Рафа, еще в студенчестве заслуживший звание компьютерного гения, признается, что нашел в интернете и расшифровал архив с суперсекретной программой. И теперь, установив эту программу на обычный смартфон, можно заглянуть в будущее - пока всего на 30 секунд. А почему бы и нет - решают друзья, не предполагая, что втягиваются в опасную игру, которая может изменить всю историю человечества... и их собственные жизни.

Страна: Испания
Студия: Ghostdog SL, Horror Box
Продолжительность: 01:44:50
Перевод: Дублированный | iTunes

Качество: WEB-DL 1080p
Видео: MPEG-4 AVC, 1920x804, 4456 Kbit/s, 24 fps
Аудио: 48 kHz, AC3, 5.1, 384 Kbps | iTunes | RUS |
Субтитры: Нет

General
Unique ID : 55650940151184544549905084619147856409 (0x29DDFB306290B6D0B23170190D6E4A19)
Complete name : E:Video111H0us3.2018.WEB-DL.1080p.seleZen.mkv
Format : Matroska
Format version : Version 4
File size : 3.55 GiB
Duration : 1 h 44 min
Overall bit rate : 4 841 kb/s
Movie name : H0us3 2018 from селезень
Encoded date : UTC 2020-01-05 11:42:26
Writing application : mkvmerge v40.0.0 ('Old Town Road + Pony') 64-bit
Writing library : libebml v1.3.9 + libmatroska v1.5.2

Video
ID : 1
Format : AVC
Format/Info : Advanced Video Codec
Format profile : High@L4
Format settings : CABAC / 5 Ref Frames
Format settings, CABAC : Yes
Format settings, Reference : 5 frames
Codec ID : V_MPEG4/ISO/AVC
Duration : 1 h 44 min
Bit rate : 4 456 kb/s
Width : 1 920 pixels
Height : 804 pixels
Display aspect ratio : 2.40:1
Frame rate mode : Constant
Frame rate : 24.000 FPS
Color space : YUV
Chroma subsampling : 4:2:0
Bit depth : 8 bits
Scan type : Progressive
Bits/(Pixel*Frame) : 0.120
Stream size : 3.26 GiB (92%)
Language : English
Default : Yes
Forced : No
Color range : Limited
Color primaries : BT.709
Transfer characteristics : BT.709
Matrix coefficients : BT.709

Audio
ID : 2
Format : AC-3
Format/Info : Audio Coding 3
Commercial name : Dolby Digital
Codec ID : A_AC3
Duration : 1 h 44 min
Bit rate mode : Constant
Bit rate : 384 kb/s
Channel(s) : 6 channels
Channel layout : L R C LFE Ls Rs
Sampling rate : 48.0 kHz
Frame rate : 31.250 FPS (1536 SPF)
Compression mode : Lossy
Stream size : 288 MiB (8%)
Title : iTunes
Language : Russian
Service kind : Complete Main
Default : Yes
Forced : Yes

Menu
00:00:00.000 : en:Глава 1
00:06:33.333 : en:Глава 2
00:19:16.708 : en:Глава 3
00:33:00.874 : en:Глава 4
00:40:34.540 : en:Глава 5
00:49:22.165 : en:Глава 6
00:52:59.581 : en:Глава 7
00:57:37.872 : en:Глава 8
01:03:47.705 : en:Глава 9
01:09:26.330 : en:Глава 10
01:22:13.913 : en:Глава 11
01:33:01.538 : en:Глава 12

Источник http://BlaTor.org

Внимание! AdBlock блокирует показ скриншотов, все вопросы к разработчикам )))
Трекер:  [ 05-Янв-2020 15:00 ]

  

Скачать .torrent

Размер .torrent файла 5 KB


Размер: 3.55 GB
Хэш (hash) релиза: f85887dc03172746848b3f837be873cacda763d5
Подписка на обновления:
dpd RU

Еще никто не оставлял запись к записи скачать торрент Пароль: Хаус H0us3 . Будь первым!

!Обратная связь