Скачать через торрент Солнцестояние Midsommar Фильм бесплатно в хорошем качестве torrent

Скачивайте на UnionPeer.org фильмы через торрент без регистрации. Новинки кино в хорошем качестве через торрент. На UnionPeer.org можно скачать через торрент фильмы 2014 и 2015 годов. Самые новые фильмы.

Скачать торрент Солнцестояние Midsommar бесплатно через .torrent фильм мультфильм сериал

Статистика раздачи
Размер:  12.75 GB   |    Зарегистрирован:  5 месяцев 25 дней   |    .torrent скачан:  29 раз   |   
Раздают:  1  
 

Скачать Солнцестояние / Midsommar (2019) BDRip 1080p | Режиссерская версия | iTunes, A через torrent

 
Timeweb Many GEOs Sprinthost
загрузка...
 
Автор Сообщение

Galfimbul ghost

avatar Galfimbul ghost


«Вековая тьма пробудится»

Солнцестояние /Midsommar

Год выхода: 2019
Жанр: Ужасы, триллер, драма
Режиссер: Ари Астер
В ролях: Флоренс Пью, Джек Рейнор, Вильхельм Бломгрен, Уильям Джексон Харпер, Уилл Поултер, Эллора Торчия, Арчи Мадекве, Хенрик Норлен, Гуннель Фред, Изабель Грилл, Агнес Вестерлунд Разе, Юлия Рагнарссон, Ларс Ворингер, Анна Острём, Хампус Халльберг, Лив Мяёнес, Луиз Петерхофф, Кати Домби, Матс Бломгрен, Михай Касаш, Остин Р. Грант, Габриелла Фон

О фильме:
День летнего солнцестояния — древний праздник, который во всех культурах окутан мистическим ореолом. В отрезанном от цивилизованного мира шведском поселении раз в 90 лет в этот день проводится уникальный обряд. Именно туда отправляется группа молодых американских антропологов. Однако вскоре после прибытия там начинает происходить нечто необъяснимое, и под светом солнца исследователям открывается настоящая тьма.



Страна: США, Швеция, Венгрия
Студия: B-Reel Films, Square Peg
Продолжительность: 02:50:15
Перевод:
• Профессиональный (полное дублирование) | iTunes
• Авторский (одноголосый, закадровый) | Визгунов
• Авторский (одноголосый, закадровый) | Яроцкий (Ненормативная лексика)

Файл
Качество: BDRip 1080p
Формат: AVI
Кодек: MPEG-4 AVC
Видео: 1920x960 (2,000:1), 23.976 fps, MPEG-4 AVC ~ 8603 Кbps avg, 0.195 bit/pixel
Аудио: AC3, 48 kHz, 6 ch, ~384.00 kbps avg | русский | iTunes
Аудио: AC3, 48 kHz, 6 ch, ~640.00 kbps avg | русский | Визгунов
Аудио: AC3, 48 kHz, 6 ch, ~448.00 kbps avg | русский | Яроцкий
Аудио: AC3, 48 kHz, 6 ch, ~640.00 kbps avg | английский | Оригинал
Субтитры: Русские (Full-2 вида), английские
Общее
Уникальный идентификатор : 161251864677363174401125172435502971319 (0x794FFABF01E3326A9134F80C113739B7)
Полное имя : Midsommar.2019.DiRECTORS.CUT.1080p.BluRay.x264.mkv
Формат : Matroska
Версия формата : Version 4
Размер файла : 12,7 Гбайт
Продолжительность : 2 ч. 50 м.
Общий поток : 10,7 Мбит/сек
Название фильма : Солнцестояние / Midsommar (2019)
Дата кодирования : UTC 2020-01-10 14:08:52
Программа кодирования : mkvmerge v41.0.0 ('Smarra') 64-bit
Библиотека кодирования : libebml v1.3.9 + libmatroska v1.5.2
Обложка : Yes
Attachments : cover.jpg

Видео
Идентификатор : 1
Формат : AVC
Формат/Информация : Advanced Video Codec
Профиль формата : High@L4.1
Настройки формата : CABAC / 4 Ref Frames
Параметр CABAC формата : Да
Параметр RefFrames формата : 4 кадра
Идентификатор кодека : V_MPEG4/ISO/AVC
Продолжительность : 2 ч. 50 м.
Битрейт : 8603 Кбит/сек
Ширина : 1920 пикселей
Высота : 960 пикселей
Соотношение сторон : 2,000
Режим частоты кадров : Постоянный
Частота кадров : 23,976 (24000/1001) кадра/сек
Цветовое пространство : YUV
Субдискретизация насыщенности : 4:2:0
Битовая глубина : 8 бит
Тип развёртки : Прогрессивная
Бит/(Пиксели*Кадры) : 0.195
Размер потока : 10,2 Гбайт (80%)
Заголовок : #CADAVER
Библиотека кодирования : x264 core 158 r2984 3759fcb
Настройки программы : cabac=1 / ref=4 / deblock=1:-3:-3 / analyse=0x3:0x133 / me=umh / subme=9 / psy=1 / psy_rd=1.00:0.00 / mixed_ref=1 / me_range=24 / chroma_me=1 / trellis=1 / 8x8dct=1 / cqm=0 / deadzone=21,11 / fast_pskip=0 / chroma_qp_offset=-2 / threads=24 / lookahead_threads=4 / sliced_threads=0 / nr=0 / decimate=1 / interlaced=0 / bluray_compat=0 / constrained_intra=0 / bframes=8 / b_pyramid=2 / b_adapt=2 / b_bias=0 / direct=3 / weightb=1 / open_gop=0 / weightp=2 / keyint=250 / keyint_min=23 / scenecut=40 / intra_refresh=0 / rc_lookahead=60 / rc=2pass / mbtree=1 / bitrate=8603 / ratetol=1.0 / qcomp=0.60 / qpmin=0 / qpmax=69 / qpstep=4 / cplxblur=20.0 / qblur=0.5 / vbv_maxrate=62500 / vbv_bufsize=78125 / nal_hrd=none / filler=0 / ip_ratio=1.40 / aq=1:1.00
Язык : English
Default : Да
Forced : Нет

Аудио #1
Идентификатор : 2
Формат : AC-3
Формат/Информация : Audio Coding 3
Коммерческое название : Dolby Digital
Идентификатор кодека : A_AC3
Продолжительность : 2 ч. 50 м.
Вид битрейта : Постоянный
Битрейт : 384 Кбит/сек
Каналы : 6 каналов
ChannelLayout : L R C LFE Ls Rs
Частота : 48,0 КГц
Частота кадров : 31,250 кадров/сек (1536 SPF)
Метод сжатия : С потерями
Размер потока : 468 Мбайт (4%)
Заголовок : iTunes
Язык : Russian
Default : Да
Forced : Нет

Аудио #2
Идентификатор : 3
Формат : AC-3
Формат/Информация : Audio Coding 3
Коммерческое название : Dolby Digital
Идентификатор кодека : A_AC3
Продолжительность : 2 ч. 50 м.
Вид битрейта : Постоянный
Битрейт : 640 Кбит/сек
Каналы : 6 каналов
ChannelLayout : L R C LFE Ls Rs
Частота : 48,0 КГц
Частота кадров : 31,250 кадров/сек (1536 SPF)
Метод сжатия : С потерями
Размер потока : 779 Мбайт (6%)
Заголовок : AVO | Визгунов
Язык : Russian
Default : Нет
Forced : Нет

Аудио #3
Идентификатор : 4
Формат : AC-3
Формат/Информация : Audio Coding 3
Коммерческое название : Dolby Digital
Идентификатор кодека : A_AC3
Продолжительность : 2 ч. 50 м.
Вид битрейта : Постоянный
Битрейт : 448 Кбит/сек
Каналы : 6 каналов
ChannelLayout : L R C LFE Ls Rs
Частота : 48,0 КГц
Частота кадров : 31,250 кадров/сек (1536 SPF)
Метод сжатия : С потерями
Размер потока : 546 Мбайт (4%)
Заголовок : AVO | Яроцкий
Язык : Russian
Default : Нет
Forced : Нет

Аудио #4
Идентификатор : 5
Формат : AC-3
Формат/Информация : Audio Coding 3
Коммерческое название : Dolby Digital
Идентификатор кодека : A_AC3
Продолжительность : 2 ч. 50 м.
Вид битрейта : Постоянный
Битрейт : 640 Кбит/сек
Каналы : 6 каналов
ChannelLayout : L R C LFE Ls Rs
Частота : 48,0 КГц
Частота кадров : 31,250 кадров/сек (1536 SPF)
Метод сжатия : С потерями
Размер потока : 779 Мбайт (6%)
Заголовок : Original
Язык : English
Default : Нет
Forced : Нет

Текст #1
Идентификатор : 6
Формат : UTF-8
Идентификатор кодека : S_TEXT/UTF8
Идентификатор кодека/Информация : UTF-8 Plain Text
Продолжительность : 2 ч. 40 м.
Битрейт : 67 бит/сек
ElementCount : 1471
Размер потока : 79,7 Кбайт (0%)
Заголовок : Full-1-FOCS
Язык : Russian
Default : Нет
Forced : Нет

Текст #2
Идентификатор : 7
Формат : UTF-8
Идентификатор кодека : S_TEXT/UTF8
Идентификатор кодека/Информация : UTF-8 Plain Text
Продолжительность : 2 ч. 45 м.
Битрейт : 64 бит/сек
ElementCount : 1514
Размер потока : 78,2 Кбайт (0%)
Заголовок : Full-2
Язык : Russian
Default : Нет
Forced : Нет

Текст #3
Идентификатор : 8
Формат : UTF-8
Идентификатор кодека : S_TEXT/UTF8
Идентификатор кодека/Информация : UTF-8 Plain Text
Продолжительность : 2 ч. 34 м.
Битрейт : 41 бит/сек
ElementCount : 1431
Размер потока : 46,6 Кбайт (0%)
Язык : English
Default : Нет
Forced : Нет

Меню
00:00:00.000 : en:Chapter 01
00:08:50.697 : en:Chapter 02
00:19:38.094 : en:Chapter 03
00:32:17.978 : en:Chapter 04
00:41:50.258 : en:Chapter 05
00:52:45.079 : en:Chapter 06
00:58:11.238 : en:Chapter 07
01:05:14.327 : en:Chapter 08
01:21:08.447 : en:Chapter 09
01:44:24.175 : en:Chapter 10
01:52:03.258 : en:Chapter 11
02:00:47.031 : en:Chapter 12
02:12:00.579 : en:Chapter 13
02:20:20.203 : en:Chapter 14
02:25:01.902 : en:Chapter 15
02:36:59.160 : en:Chapter 16
Источник http://BlaTor.org

Внимание! AdBlock блокирует показ скриншотов, все вопросы к разработчикам )))
Трекер:  [ 10-Янв-2020 19:10 ]

  

Скачать .torrent

Размер .torrent файла 32 KB


Размер: 12.75 GB
Хэш (hash) релиза: efa7be7f24c8b2a60262c9e75ce380383b2104c2
Подписка на обновления:

Торренты, похожие на Солнцестояние Midsommar скачать торрент

Форум Название Автор Размер S L Добавлен
Зарубежные фильмы 2016-2019 (Новинки зарубежного кино) ·%· Солнцестояние / Midsommar (2019) BDRemux 1080p | D, A, L | Director's Cut Galfimbul ghost 4587458103642.72 GB 0 0 1578999615

14:00

14-Янв-20

Зарубежные фильмы 2016-2019 (Новинки зарубежного кино) ·%· Солнцестояние / Midsommar (2019) BDRip от MegaPeer | Режиссерская версия | iTunes Galfimbul ghost 15655628801.46 GB 0 0 1578726609

10:10

11-Янв-20

Зарубежные фильмы 2016-2019 (Новинки зарубежного кино) ·%· Солнцестояние / Midsommar (2019) BDRip от MegaPeer | Режиссерская версия | iTunes Galfimbul ghost 23439360002.18 GB 0 0 1578679812

21:10

10-Янв-20

Зарубежные фильмы 2016-2019 (Новинки зарубежного кино) ·%· Солнцестояние / Midsommar (2019) BDRip | Режиссерская версия | iTunes Galfimbul ghost 15657717761.46 GB 0 0 1578672622

19:10

10-Янв-20

Зарубежные фильмы 2016-2019 (Новинки зарубежного кино) ·%· Солнцестояние / Midsommar (2019) BDRip | Режиссерская версия | iTunes Galfimbul ghost 30460456962.84 GB 0 0 1578672617

19:10

10-Янв-20

Зарубежные фильмы 2016-2019 (Новинки зарубежного кино) ·%· Солнцестояние / Midsommar (2019) BDRip 720p | Режиссерская версия | iTunes, A Galfimbul ghost 89899211978.37 GB 0 0 1578672612

19:10

10-Янв-20

Зарубежные фильмы 2016-2019 (Новинки зарубежного кино) ·%· Солнцестояние / Midsommar (2019) BDRip от MegaPeer | Режиссерская версия | A Galfimbul ghost 31253176322.91 GB 0 0 1576828849

11:00

20-Дек-19

Зарубежные фильмы 2016-2019 (Новинки зарубежного кино) ·%· Солнцестояние / Midsommar (2019) BDRemux 1080p | A, L | Director's Cut Galfimbul ghost 4309467934240.14 GB 0 0 1576779014

21:10

19-Дек-19

Зарубежные фильмы 2016-2019 (Новинки зарубежного кино) ·%· Солнцестояние / Midsommar (2019) HDRip от Scarabey | P | Режиссерская версия Galfimbul ghost 23475712002.19 GB 0 0 1576344650

20:30

14-Дек-19

Зарубежные фильмы 2016-2019 (Новинки зарубежного кино) ·%· Солнцестояние / Midsommar (2019) BDRip 720p от Scarabey | P | Режиссерская версия Galfimbul ghost 92611841398.63 GB 0 0 1576172413

20:40

12-Дек-19

Зарубежные фильмы 2016-2019 (Новинки зарубежного кино) ·%· Солнцестояние / Midsommar (2019) BDRip 1080p | P | Directors Cut Galfimbul ghost 1316049071312.26 GB 0 0 1576100410

00:40

12-Дек-19

Зарубежные фильмы 2016-2019 (Новинки зарубежного кино) ·%· Солнцестояние / Midsommar (2019) BDRip | P | Режиссерская версия Galfimbul ghost 15664250881.46 GB 0 0 1576092010

22:20

11-Дек-19

Зарубежные фильмы 2016-2019 (Новинки зарубежного кино) ·%· Солнцестояние / Midsommar (2019) UHD BDRemux 2160p от селезень | 4K | HDR | iTunes Galfimbul ghost 9174995369485.45 GB 0 0 1573978810

11:20

17-Ноя-19

Зарубежные фильмы 2016-2019 (Новинки зарубежного кино) ·%· Солнцестояние / Midsommar (2019) HDRip-AVC | iTunes Galfimbul ghost 15670613681.46 GB 0 0 1572279034

19:10

28-Окт-19

Зарубежные фильмы 2016-2019 (Новинки зарубежного кино) ·%· Солнцестояние / Midsommar (2019) BDRip-HEVC 1080p от HEVC-CLUB | iTunes Galfimbul ghost 96208468528.96 GB 0 0 1571129419

11:50

15-Окт-19

Зарубежные фильмы 2016-2019 (Новинки зарубежного кино) ·%· Солнцестояние / Midsommar (2019) HDRip | КПК | iTunes Galfimbul ghost 625320991596 MB 0 0 1570638014

19:20

9-Окт-19

Зарубежные фильмы 2016-2019 (Новинки зарубежного кино) ·%· Солнцестояние / Midsommar (2019) BDRip 720p от k.e.n & MegaPeer | D | iTunes Galfimbul ghost 61109201715.69 GB 0 0 1570635612

18:40

9-Окт-19

Зарубежные фильмы 2016-2019 (Новинки зарубежного кино) ·%· Солнцестояние / Midsommar (2019) BDRip 720p от Scarabey | iTunes Galfimbul ghost 48389167304.51 GB 0 0 1570555230

20:20

8-Окт-19

Зарубежные фильмы 2016-2019 (Новинки зарубежного кино) ·%· Солнцестояние / Midsommar (2019) BDRip от Twister & ExKinoRay | iTunes Galfimbul ghost 15889201561.48 GB 0 0 1570212012

21:00

4-Окт-19

Superjob
dpd RU

Еще никто не оставлял запись к записи скачать торрент Солнцестояние Midsommar . Будь первым!

!Обратная связь