Скачать через торрент Новогодний ремонт Фильм бесплатно в хорошем качестве torrent

Скачивайте на UnionPeer.org фильмы через торрент без регистрации. Новинки кино в хорошем качестве через торрент. На UnionPeer.org можно скачать через торрент фильмы 2014 и 2015 годов. Самые новые фильмы.

Скачать торрент Новогодний ремонт бесплатно через .torrent фильм мультфильм сериал

Статистика раздачи
Размер:  746 MB   |    Зарегистрирован:  13 дней   |    .torrent скачан:  26 раз   |   
Раздают:  3  
 

Скачать Новогодний ремонт (2019) WEB-DLRip от GeneralFilm через torrent

 
загрузка...
 
Автор Сообщение

Galfimbul

avatar Galfimbul


Год выпуска: 2019
Жанр: Комедия, мелодрама
Выпущено: Россия, «ВитЭл»
Режиссер: Артур Пинхасов
В ролях: Зоя Бербер, Сергей Комаров, Артём Осипов, Эрик Бигуля, Вадим Галыгин, Ирина Розанова, Виталия Корниенко, Данил Стеклов, Макар Запорожский, Исмаил Коне

О фильме: У Марго есть 24 часа, чтобы сделать ремонт в квартире к приезду дочери и мамы. В попытке найти решение, она случайно отправляет сообщение с просьбой о помощи всем контактам в телефоне. С этого момента дверной звонок звучит непрерывно, а в квартире Риты один за другим появляются старые и новые друзья - русский депутат, учитель-еврей, армянин - владелец ресторана. Последним как снег на голову падает американец с предложением жениться. Все вместе решают: Маргариту в США отпускать нельзя! Пусть это будет непросто, но русские ведь просто так не сдаются...

Качество: WEB-DLRip
Видео: XviD build 73, 720x304 (2.35:1), 25.000 fps, 1120 Kbps (0.205 bit/pixel)
Аудио: 48.0 kHz, MP3, 2/0 ch, 128 kbps
Продолжительность: 01:22:53
Перевод: Не требуется [Русский]
Cубтитры: нет
General
Complete name : D:RazdachiNovogodnij.Remont.2019.WEB-DLRip.GeneralFilm.avi
Format : AVI
Format/Info : Audio Video Interleave
File size : 746 MiB
Duration : 1 h 22 min
Overall bit rate : 1 258 kb/s
Writing application : VirtualDubMod 1.5.10.3 | www.virtualdub-fr.org || (build 2550/release)
Writing library : VirtualDubMod build 2550/release

Video
ID : 0
Format : MPEG-4 Visual
Format profile : Advanced Simple@L5
Format settings : BVOP1 / Custom Matrix
Format settings, BVOP : 1
Format settings, QPel : No
Format settings, GMC : No warppoints
Format settings, Matrix : Custom
Codec ID : XVID
Codec ID/Hint : XviD
Duration : 1 h 22 min
Bit rate : 1 120 kb/s
Width : 720 pixels
Height : 304 pixels
Display aspect ratio : 2.35:1
Frame rate : 25.000 FPS
Color space : YUV
Chroma subsampling : 4:2:0
Bit depth : 8 bits
Scan type : Progressive
Compression mode : Lossy
Bits/(Pixel*Frame) : 0.205
Stream size : 664 MiB (89%)
Writing library : XviD 73

Audio
ID : 1
Format : MPEG Audio
Format version : Version 1
Format profile : Layer 3
Codec ID : 55
Codec ID/Hint : MP3
Duration : 1 h 22 min
Bit rate mode : Constant
Bit rate : 128 kb/s
Channel(s) : 2 channels
Sampling rate : 48.0 kHz
Frame rate : 41.667 FPS (1152 SPF)
Compression mode : Lossy
Stream size : 75.9 MiB (10%)
Alignment : Aligned on interleaves
Interleave, duration : 40 ms (1.00 video frame)
Interleave, preload duratio : 504 ms
Writing library : LAME3.99r
Encoding settings : -m s -V 4 -q 2 -lowpass 17 -b 128
Релиз от:
Источник http://BlaTor.org

Трекер:  [ 12-Янв-2020 14:20 ]

  

Скачать .torrent

Размер .torrent файла 15 KB


Размер: 746 MB
Хэш (hash) релиза: 290e35dbe6d9ad6ce4cc989832ea65771a9fca11
Подписка на обновления:

Еще никто не оставлял запись к записи скачать торрент Новогодний ремонт . Будь первым!

!Обратная связь