Скачать через торрент Птица Фильм бесплатно в хорошем качестве torrent

Скачивайте на UnionPeer.org фильмы через торрент без регистрации. Новинки кино в хорошем качестве через торрент. На UnionPeer.org можно скачать через торрент фильмы 2014 и 2015 годов. Самые новые фильмы.

Скачать торрент Птица бесплатно через .torrent фильм мультфильм сериал

Статистика раздачи
Размер:  1.37 GB   |    Зарегистрирован:  11 дней   |    .torrent скачан:  60 раз   |   
Раздают:  2  
 

Скачать Птица (2016) WEB-DLRip от GeneralFilm через torrent

 
загрузка...
 
Автор Сообщение

Galfimbul

avatar Galfimbul


Год выпуска: 2016
Жанр: Мелодрама, музыкальный фильм
Выпущено: Россия, «Ленфильм»
Режиссер: Ксения Баскакова
В ролях: Иван Охлобыстин, Евдокия Малевская, Анастасия Мельникова, Гарик Сукачёв, Инна Горбикова, Кирилл Рубцов, Кирилл Захаров, Денис Старков, Олеся Соколова, Владимир Лекус, Игорь Царев, Марианна Лучинина, Ольга Яковлева (II), Ксения Карелина, Дарья Зарецкая, Наталия Вязовская, Екатерина Фёдорова, Вадим Пишков, Дмитрий Ерофеев

О фильме: «Олег Птицын умер», «Олег Птицын скрывается в тюрьме» — пестрят заголовки журналов и газет. Но нет, скандально известный рок-музыкант проходит лечение в клинике, там же к нему навязывается в друзья Катя, девочка-подросток, которая третирует всю больницу, с ней не может совладать даже собственная мать. Между ними начинается дружба.



Качество: WEB-DLRip
Видео: XviD build 73, 720x304 (2.35:1), 25.000 fps, 2047 Kbps (0.374 bit/pixel)
Аудио: 48.0 kHz, AC3, 2/0 ch, 192 kbps
Продолжительность: 01:27:05
Перевод: Не требуется [Русский]
Cубтитры: нет
General
Complete name : D:RazdachiPtica.2016.WEB-DLRip.GeneralFilm.avi
Format : AVI
Format/Info : Audio Video Interleave
File size : 1.37 GiB
Duration : 1 h 27 min
Overall bit rate : 2 249 kb/s
Writing application : VirtualDubMod 1.5.10.3 | www.virtualdub-fr.org || (build 2550/release)
Writing library : VirtualDubMod build 2550/release

Video
ID : 0
Format : MPEG-4 Visual
Format profile : Advanced Simple@L5
Format settings : BVOP1 / Custom Matrix
Format settings, BVOP : 1
Format settings, QPel : No
Format settings, GMC : No warppoints
Format settings, Matrix : Custom
Codec ID : XVID
Codec ID/Hint : XviD
Duration : 1 h 27 min
Bit rate : 2 047 kb/s
Width : 720 pixels
Height : 304 pixels
Display aspect ratio : 2.35:1
Frame rate : 25.000 FPS
Color space : YUV
Chroma subsampling : 4:2:0
Bit depth : 8 bits
Scan type : Progressive
Compression mode : Lossy
Bits/(Pixel*Frame) : 0.374
Stream size : 1.25 GiB (91%)
Writing library : XviD 73

Audio
ID : 1
Format : AC-3
Format/Info : Audio Coding 3
Commercial name : Dolby Digital
Codec ID : 2000
Duration : 1 h 27 min
Bit rate mode : Constant
Bit rate : 192 kb/s
Channel(s) : 2 channels
Channel layout : L R
Sampling rate : 48.0 kHz
Frame rate : 31.250 FPS (1536 SPF)
Compression mode : Lossy
Stream size : 120 MiB (9%)
Alignment : Split across interleaves
Interleave, duration : 40 ms (1.00 video frame)
Interleave, preload duratio : 500 ms
Service kind : Complete Main
Релиз от:
Источник http://BlaTor.org

Трекер:  [ 12-Янв-2020 22:20 ]

  

Скачать .torrent

Размер .torrent файла 14 KB


Размер: 1.37 GB
Хэш (hash) релиза: 96792f7ee8a92e239446b4cf2d3fb34878a5437c
Подписка на обновления:

Торренты, похожие на Птица скачать торрент

Форум Название Автор Размер S L Добавлен
Документальные фильмы и телепередачи ·· Жизнь птиц / Правда о птицах / The Life of Birds (Дэвид Аттенборо / David Attenborough) [1998, Документальный, DVDRip] [DUB] (Н. Дроздов) Galfimbul 1028530176981 MB 0 0 1496158591

18:36

30-Май-17

Зарубежные сериалы ·· Дом синей птицы / Гнездо синей птицы / Parangsaeui Jib / The Bluebird's House / Bluebird's Nest [50 из 50] [2015, семья, драма, романтика, комедия, HDTVRip] [RAW] [360p] Galfimbul 3672935720134.21 GB 0 0 1461343304

19:41

22-Апр-16

Зарубежные сериалы ·· Дом синей птицы / Гнездо синей птицы / Parangsaeui Jib / The Bluebird's House / Bluebird's Nest [50 из 50] [2015, семья, драма, романтика, комедия, HDTVRip] [RAW] [360p] Galfimbul 3672935802934.21 GB 0 0 1457481976

03:06

9-Мар-16

Зарубежные сериалы ·· Дом синей птицы / Гнездо синей птицы / Parangsaeui Jib / The Bluebird's House / Bluebird's Nest [38 из 50] [2015, семья, драма, романтика, комедия, HDTVRip] [RAW] [360p] Galfimbul 2793390469526.02 GB 0 0 1454339193

18:06

1-Фев-16

Зарубежные сериалы ·· Дом синей птицы / Гнездо синей птицы / Parangsaeui Jib / The Bluebird's House / Bluebird's Nest [34 из 50] [2015, семья, драма, романтика, комедия, HDTVRip] [RAW] [360p] Galfimbul 2489795535423.19 GB 0 0 1453394374

19:39

21-Янв-16

Зарубежные сериалы ·· Дом синей птицы / Гнездо синей птицы / Parangsaeui Jib / The Bluebird's House / Bluebird's Nest [33 из 50] [2015, семья, драма, романтика, комедия, HDTVRip] [RAW] [360p] Galfimbul 2413811301222.48 GB 0 0 1452418516

12:35

10-Янв-16

Зарубежные сериалы ·· Дом синей птицы / Гнездо синей птицы / Parangsaeui Jib / The Bluebird's House / Bluebird's Nest [31 из 50] [2015, семья, драма, романтика, комедия, HDTVRip] [RAW] [360p] Galfimbul 2265289481521.1 GB 0 0 1449223684

13:08

4-Дек-15

Зарубежные фильмы до 2016 ·· Птица прощания / Птица разлуки / The Goodbye Bird (Уильям Кларк / William Clark) [1993 г., Драма, молодежный, DVDScr] _N_ 934516736891 MB 0 0 1365237512

11:38

6-Апр-13

Российские фильмы 2016-2020 (Новинки русского кино) ·%· Птица (2016) WEB-DL 1080p Galfimbul 33483216153.12 GB 0 0 1578678615

20:50

10-Янв-20

Мультфильмы 2016-2020 (Новинки мультфильмов) ·%· Тито и Птицы / Tito And The Birds / Tito e os P?ssaros (2018) WEB-DL 1080p | NewStation Galfimbul 56579777235.27 GB 0 0 1567099817

20:30

29-Авг-19

Зарубежные фильмы 2016-2020 (Новинки зарубежного кино) ·%· Синяя птица в моём сердце / A Bluebird in My Heart (2018) WEBRip 720p | L1 Galfimbul 17640836601.64 GB 0 0 1564318821

16:00

28-Июл-19

Зарубежные фильмы 2016-2020 (Новинки зарубежного кино) ·%· Птица высокого полёта / High Flying Bird (2019) WEB-DLRip от ExKinoRay | HDRezka Studio Galfimbul 15746650311.47 GB 0 0 1552875020

05:10

18-Мар-19

Зарубежные фильмы 2016-2020 (Новинки зарубежного кино) ·%· Птица высокого полёта / High Flying Bird (2019) WEBRip 1080p | LakeFilms Galfimbul 12832982451.2 GB 0 0 1551073318

08:41

25-Фев-19

Зарубежные фильмы 2016-2020 (Новинки зарубежного кино) ·%· Птица высокого полёта / High Flying Bird (2019) WEBRip | LakeFilms Galfimbul 899111014857 MB 0 0 1551073308

08:41

25-Фев-19

Зарубежные фильмы 2016-2020 (Новинки зарубежного кино) ·%· Белая птица в метели / White Bird in a Blizzard (2014) HDRip | КПК | A Galfimbul 365500289349 MB 0 0 1536343894

21:11

7-Сен-18

Зарубежные фильмы 2016-2020 (Новинки зарубежного кино) ·%· Жёлтые птицы / The Yellow Birds (2017) BDRip-AVC от OlLanDGroup | HDrezka Studio Galfimbul 17825003121.66 GB 0 0 1536042048

09:20

4-Сен-18

Зарубежные фильмы 2016-2020 (Новинки зарубежного кино) ·%· Белая птица в метели / White Bird in a Blizzard (2014) BDRip 720p от HELLYWOOD | A Galfimbul 46962656284.37 GB 0 0 1535197215

14:40

25-Авг-18

Зарубежные фильмы 2016-2020 (Новинки зарубежного кино) ·%· Жёлтые птицы / The Yellow Birds (2017) HDRip от MegaPeer | HDRezka Studio Galfimbul 781770182746 MB 0 0 1533667810

21:50

7-Авг-18

Российские фильмы 2016-2020 (Новинки русского кино) ·%· Птица (2016) WEB-DLRip-AVC от Files-x Galfimbul 14670768781.37 GB 2 0 1532350808

16:00

23-Июл-18

Еще никто не оставлял запись к записи скачать торрент Птица . Будь первым!

!Обратная связь