Скачать через торрент Сиротский Бруклин Motherless Brooklyn Фильм бесплатно в хорошем качестве torrent

Скачивайте на UnionPeer.org фильмы через торрент без регистрации. Новинки кино в хорошем качестве через торрент. На UnionPeer.org можно скачать через торрент фильмы 2014 и 2015 годов. Самые новые фильмы.

Скачать торрент Сиротский Бруклин Motherless Brooklyn бесплатно через .torrent фильм мультфильм сериал

Статистика раздачи
Размер:  9.7 GB   |    Зарегистрирован:  11 дней   |    .torrent скачан:  77 раз   |   
Раздают:  1  
 

Скачать Сиротский Бруклин / Motherless Brooklyn (2019) WEB-DL 1080p | Sub через torrent

 
загрузка...
 
Автор Сообщение

Galfimbul

avatar Galfimbul


Сиротский Бруклин /Motherless Brooklyn

Год выхода: 2019
Жанр: Драма, криминал, детектив
Режиссер: Эдвард Нортон
В ролях: Эдвард Нортон, Гугу Мбата-Роу, Алек Болдуин, Бобби Каннавейл, Уиллем Дефо, Брюс Уиллис, Итэн Сапли, Черри Джонс, Даллас Робертс, Джош Пэйс, Раду Спингель, Фишер Стивенс, Питер Грэй Льюис, Роберт Уиздом, Майкл Кеннет Уильямс, Айзиа Дж. Томпсон

О фильме:
Лайонел Эссрог, одинокий частный детектив с синдромом Туретта, решает начать расследование убийства своего наставника и единственного друга Фрэнка Минны. У него есть лишь несколько зацепок и сила разума, одержимого поставленной целью, чтобы распутать клубок тщательно скрываемых тайн, которые сохраняют баланс сил в самом Нью-Йорке. Расследование заводит его в джазовые клубы Гарлема, где рекой течет джин, опасные трущобы Бруклина и даже в позолоченные залы политической элиты мегаполиса. Он бросает вызов гангстерам, коррупции и самому опасному человеку в городе, чтобы очистить имя своего друга и спасти женщину, которая может спасти его самого.



Страна: США
Студия: Class 5 Films, MWM Studios, Warner Bros. Pictures
Продолжительность: 02:24:17
Перевод: СУБТИТРЫ

Файл
Кодек: AVC
Качество: WEB-DL 1080p | AMZN
Видео: MPEG-4 AVC, 8984 Kбит/с, 1920x1040, 23.976 кадр/с
Аудио #1: Английский (E-АС3, 6 ch, 640 Кбит/с, 48.0 KHz)
Субтитры: Русские (Full, (Перевод субтитров: Татьяна Грачева), английские
? Без Рекламы!
Трейлер
Источник: Motherless.Brooklyn.2019.1080p.AMZN.WEB-DL.DDP5.1.H.264-NTG
General
Unique ID : 253189698046437784988414825772125713930 (0xBE7A8FE64BF8857BB16F03A55C2AF60A)
Complete name : Motherless.Brooklyn.2019.AMZN.WEB-DL.1080p.Sub.Rus.mkv
Format : Matroska
Format version : Version 4
File size : 9.70 GiB
Duration : 2 h 24 min
Overall bit rate : 9 626 kb/s
Encoded date : UTC 2020-01-14 15:28:23
Writing application : mkvmerge v7.1.0 ('Good Love') 64bit built on Jul 27 2014 13:06:55
Writing library : libebml v1.3.0 + libmatroska v1.4.1

Video
ID : 1
Format : AVC
Format/Info : Advanced Video Codec
Format profile : High@L4
Format settings : CABAC / 4 Ref Frames
Format settings, CABAC : Yes
Format settings, Reference fra : 4 frames
Codec ID : V_MPEG4/ISO/AVC
Duration : 2 h 24 min
Bit rate mode : Constant
Bit rate : 8 984 kb/s
Nominal bit rate : 10 000 kb/s
Width : 1 920 pixels
Height : 1 040 pixels
Display aspect ratio : 1.85:1
Frame rate mode : Constant
Frame rate : 23.976 (24000/1001) FPS
Color space : YUV
Chroma subsampling : 4:2:0
Bit depth : 8 bits
Scan type : Progressive
Bits/(Pixel*Frame) : 0.188
Stream size : 9.05 GiB (93%)
Language : English
Default : Yes
Forced : No
Color range : Limited
Color primaries : BT.709
Transfer characteristics : BT.709
Matrix coefficients : BT.709

Audio
ID : 2
Format : E-AC-3
Format/Info : Enhanced AC-3
Commercial name : Dolby Digital Plus
Codec ID : A_EAC3
Duration : 2 h 24 min
Bit rate mode : Constant
Bit rate : 640 kb/s
Channel(s) : 6 channels
Channel layout : L R C LFE Ls Rs
Sampling rate : 48.0 kHz
Frame rate : 31.250 FPS (1536 SPF)
Compression mode : Lossy
Stream size : 661 MiB (7%)
Language : English
Service kind : Complete Main
Default : Yes
Forced : No

Text #1
ID : 3
Format : UTF-8
Codec ID : S_TEXT/UTF8
Codec ID/Info : UTF-8 Plain Text
Duration : 2 h 23 min
Bit rate : 135 b/s
Count of elements : 2356
Stream size : 142 KiB (0%)
Language : Russian
Default : Yes
Forced : No

Text #2
ID : 4
Format : UTF-8
Codec ID : S_TEXT/UTF8
Codec ID/Info : UTF-8 Plain Text
Duration : 2 h 15 min
Bit rate : 79 b/s
Count of elements : 2566
Stream size : 78.9 KiB (0%)
Language : English
Default : No
Forced : No

Text #3
ID : 5
Format : UTF-8
Codec ID : S_TEXT/UTF8
Codec ID/Info : UTF-8 Plain Text
Duration : 2 h 16 min
Bit rate : 84 b/s
Count of elements : 2738
Stream size : 84.2 KiB (0%)
Title : SDH
Language : English
Default : No
Forced : No
Источник http://BlaTor.org

Трекер:  [ 14-Янв-2020 19:10 ]

  

Скачать .torrent

Размер .torrent файла 24 KB


Размер: 9.7 GB
Хэш (hash) релиза: 6a35cddce50df3f682417f1e979b01611ee9ad2c
Подписка на обновления:

Торренты, похожие на Сиротский Бруклин Motherless Brooklyn скачать торрент

Форум Название Автор Размер S L Добавлен
Зарубежные фильмы 2016-2020 (Новинки зарубежного кино) ·%· Сиротский Бруклин / Motherless Brooklyn (2019) BDRip от Twister & ExKinoRay | iTunes Galfimbul 15712073821.46 GB 2 0 1579684812

12:20

22-Янв-20

Зарубежные фильмы 2016-2020 (Новинки зарубежного кино) ·%· Сиротский Бруклин / Motherless Brooklyn (2019) BDRip от Twister & ExKinoRay | iTunes Galfimbul 22745827802.12 GB 0 0 1579684807

12:20

22-Янв-20

Зарубежные фильмы 2016-2020 (Новинки зарубежного кино) ·%· Сиротский Бруклин / Motherless Brooklyn (2019) BDRip-AVC от OlLanDGroup | iTunes Galfimbul 15605785301.45 GB 0 0 1579610411

15:40

21-Янв-20

Зарубежные фильмы 2016-2020 (Новинки зарубежного кино) ·%· Сиротский Бруклин / Motherless Brooklyn (2019) HDRip | КПК | iTunes Galfimbul 573892865547 MB 0 0 1579606810

14:40

21-Янв-20

Зарубежные фильмы 2016-2020 (Новинки зарубежного кино) ·%· Сиротский Бруклин / Motherless Brooklyn (2019) BDRip 720p от ExKinoRay | iTunes Galfimbul 105811390539.85 GB 2 0 1579557610

01:00

21-Янв-20

Зарубежные фильмы 2016-2020 (Новинки зарубежного кино) ·%· Сиротский Бруклин / Motherless Brooklyn (2019) HDRip от Scarabey | iTunes Galfimbul 22669455362.11 GB 0 0 1579542008

20:40

20-Янв-20

Зарубежные фильмы 2016-2020 (Новинки зарубежного кино) ·%· Сиротский Бруклин / Motherless Brooklyn (2019) HDRip-AVC от ExKinoRay | iTunes Galfimbul 11559855391.08 GB 0 0 1579533614

18:20

20-Янв-20

Зарубежные фильмы 2016-2020 (Новинки зарубежного кино) ·%· Сиротский Бруклин / Motherless Brooklyn (2019) BDRemux 1080p от селезень | iTunes Galfimbul 3395418773931.62 GB 2 0 1579466412

23:40

19-Янв-20

Зарубежные фильмы 2016-2020 (Новинки зарубежного кино) ·%· Сиротский Бруклин / Motherless Brooklyn (2019) HDRip от Scarabey | iTunes Galfimbul 15537438721.45 GB 2 0 1579452020

19:40

19-Янв-20

Зарубежные фильмы 2016-2020 (Новинки зарубежного кино) ·%· Сиротский Бруклин / Motherless Brooklyn (2019) BDRip 720p от селезень | iTunes Galfimbul 89567561768.34 GB 0 0 1579447809

18:30

19-Янв-20

Зарубежные фильмы 2016-2020 (Новинки зарубежного кино) ·%· Сиротский Бруклин / Motherless Brooklyn (2019) BDRip 720p | iTunes Galfimbul 74583964166.95 GB 3 0 1579415408

09:30

19-Янв-20

Зарубежные фильмы 2016-2020 (Новинки зарубежного кино) ·%· Сиротский Бруклин / Motherless Brooklyn (2019) HDRip-AVC | iTunes Galfimbul 23308186302.17 GB 2 0 1579373409

21:50

18-Янв-20

Зарубежные фильмы 2016-2020 (Новинки зарубежного кино) ·%· Сиротский Бруклин / Motherless Brooklyn (2019) BDRip 1080p от селезень | iTunes Galfimbul 1483492077213.82 GB 3 0 1579353013

16:10

18-Янв-20

Зарубежные фильмы 2016-2020 (Новинки зарубежного кино) ·%· Сиротский Бруклин / Motherless Brooklyn (2019) WEBRip | LakeFilms Galfimbul 14157280801.32 GB 0 0 1579347041

14:30

18-Янв-20

Зарубежные фильмы 2016-2020 (Новинки зарубежного кино) ·%· Сиротский Бруклин / Motherless Brooklyn (2019) WEBRip 720p | LakeFilms Galfimbul 34748409093.24 GB 0 0 1579347033

14:30

18-Янв-20

Зарубежные фильмы 2016-2020 (Новинки зарубежного кино) ·%· Сиротский Бруклин / Motherless Brooklyn (2019) WEBRip 1080p | LakeFilms Galfimbul 51962380344.84 GB 2 0 1579347029

14:30

18-Янв-20

Зарубежные фильмы 2016-2020 (Новинки зарубежного кино) ·%· Сиротский Бруклин / Motherless Brooklyn (2019) WEB-DLRip от MegaPeer | Sub Galfimbul 15687325161.46 GB 2 0 1579076408

11:20

15-Янв-20

Зарубежные фильмы 2016-2020 (Новинки зарубежного кино) ·%· Сиротский Бруклин / Motherless Brooklyn (2019) WEB-DLRip от MegaPeer | Sub Galfimbul 23437100522.18 GB 0 0 1579027208

21:40

14-Янв-20

Еще никто не оставлял запись к записи скачать торрент Сиротский Бруклин Motherless Brooklyn . Будь первым!

!Обратная связь