Скачать через торрент Подсобка дьявола The Shed Фильм бесплатно в хорошем качестве torrent

Скачивайте на UnionPeer.org фильмы через торрент без регистрации. Новинки кино в хорошем качестве через торрент. На UnionPeer.org можно скачать через торрент фильмы 2014 и 2015 годов. Самые новые фильмы.

Скачать торрент Подсобка дьявола The Shed бесплатно через .torrent фильм мультфильм сериал

Статистика раздачи
Размер:  2.79 GB   |    Зарегистрирован:  11 дней   |    .torrent скачан:  10 раз   |   
Раздают:  1  
 

Скачать Подсобка дьявола / The Shed (2019) BDRip 720p от SuperMin | iTunes через torrent

 
загрузка...
 
Автор Сообщение

Galfimbul

avatar Galfimbul


Подсобка дьявола / The Shed

Год выпуска: 2019
Жанр: ужасы, драма
Режиссер: Фрэнк Сабателла
В ролях:Джей Джей Уоррен, Коуди Костро, София Хаппонен, Фрэнк Уэйли, Тимоти Боттомс, Шиван Фэллон, Крис Петровски, Франциско Бургос, Ули Шлезингер, Му-Шака Бенсон

Стэн рано лишился родителей и теперь живёт с грубым дедом, который только и делает, что пьёт и кричит на внука. В школе парню вместе с другом Доммером постоянно приходится отбиваться хулиганов, так что жизнь ребят нельзя назвать увлекательной. Однажды Стэн в собственном сарае для инструментов обнаруживает злобное существо — плотоядное порождение ночи — и с этого момента жизнь парня осложняется ещё сильнее.



Страна: США
Студия: A Bigger Boat, Sideshow Pictures
Продолжительность: 01:37:10
Перевод: Дубляж
Файл
Кодек: H.264
Качество: BDRip 720
Видео: 1280x534 (2.40:1), 3080 kbps, 23.976 fps
Звук: Русский (AC3, 6ch, 384 Кбит/с)
Английский (AC-3, 6ch, 640 kbps)
Субтитры: английские

x264 [info]: frame I:1221 Avg QP:16.35 size:105345
x264 [info]: frame P:31282 Avg QP:17.85 size: 34861
x264 [info]: frame B:107274 Avg QP:20.27 size: 9556
x264 [info]: consecutive B-frames: 2.3% 2.7% 9.5% 23.6% 18.7% 33.7% 5.1% 1.5% 1.1% 0.6% 1.2%
x264 [total]: encoded 139777 frames, 11.87 fps, 3079.60 kb/s

General
Unique ID : 161551038330414724139971490130701832924 (0x79899925633A1AD61028176EDD13D2DC)
Complete name : F:ФИЛЬМЫРУТОРПодсобка дьявола. BDRip 720p.mkv
Format : Matroska
Format version : Version 4
File size : 2.79 GiB
Duration : 1 h 37 min
Overall bit rate : 4 106 kb/s
Movie name : Подсобка дьявола / The Shed (2019) - #LORDKILL#
Encoded date : UTC 2020-01-14 18:12:52
Writing application : mkvmerge v32.0.0 ('Astral Progressions') 64-bit
Writing library : libebml v1.3.7 + libmatroska v1.5.0

Video
ID : 1
Format : AVC
Format/Info : Advanced Video Codec
Format profile : High@L4.1
Format settings : CABAC / 12 Ref Frames
Format settings, CABAC : Yes
Format settings, Reference : 12 frames
Codec ID : V_MPEG4/ISO/AVC
Duration : 1 h 37 min
Bit rate : 3 080 kb/s
Width : 1 280 pixels
Height : 534 pixels
Display aspect ratio : 2.40:1
Frame rate mode : Constant
Frame rate : 23.976 (24000/1001) FPS
Color space : YUV
Chroma subsampling : 4:2:0
Bit depth : 8 bits
Scan type : Progressive
Bits/(Pixel*Frame) : 0.188
Stream size : 2.09 GiB (75%)
Writing library : x264 core 146 r2538 121396c
Encoding settings : cabac=1 / ref=12 / deblock=1:-1:-1 / analyse=0x3:0x113 / me=umh / subme=10 / psy=1 / psy_rd=1.00:0.15 / mixed_ref=1 / me_range=32 / chroma_me=1 / trellis=2 / 8x8dct=1 / cqm=0 / deadzone=21,11 / fast_pskip=0 / chroma_qp_offset=-3 / threads=12 / lookahead_threads=3 / sliced_threads=0 / nr=0 / decimate=1 / interlaced=0 / bluray_compat=0 / constrained_intra=0 / bframes=10 / b_pyramid=2 / b_adapt=2 / b_bias=0 / direct=1 / weightb=1 / open_gop=0 / weightp=2 / keyint=240 / keyint_min=23 / scenecut=40 / intra_refresh=0 / rc=crf / mbtree=0 / crf=18.5 / qcomp=0.60 / qpmin=0 / qpmax=69 / qpstep=4 / ip_ratio=1.40 / pb_ratio=1.30 / aq=1:1.00
Language : English
Default : Yes
Forced : No

Audio #1
ID : 2
Format : AC-3
Format/Info : Audio Coding 3
Commercial name : Dolby Digital
Codec ID : A_AC3
Duration : 1 h 37 min
Bit rate mode : Constant
Bit rate : 384 kb/s
Channel(s) : 6 channels
Channel layout : L R C LFE Ls Rs
Sampling rate : 48.0 kHz
Frame rate : 31.250 FPS (1536 SPF)
Compression mode : Lossy
Stream size : 267 MiB (9%)
Title : Дубляж - iTunes
Language : Russian
Service kind : Complete Main
Default : Yes
Forced : No

Audio #2
ID : 3
Format : AC-3
Format/Info : Audio Coding 3
Commercial name : Dolby Digital
Codec ID : A_AC3
Duration : 1 h 37 min
Bit rate mode : Constant
Bit rate : 640 kb/s
Channel(s) : 6 channels
Channel layout : L R C LFE Ls Rs
Sampling rate : 48.0 kHz
Frame rate : 31.250 FPS (1536 SPF)
Compression mode : Lossy
Stream size : 445 MiB (16%)
Language : English
Service kind : Complete Main
Default : No
Forced : No

Text
ID : 4
Format : UTF-8
Codec ID : S_TEXT/UTF8
Codec ID/Info : UTF-8 Plain Text
Duration : 1 h 31 min
Bit rate : 42 b/s
Count of elements : 1043
Stream size : 28.7 KiB (0%)
Language : English
Default : No
Forced : No

Menu
00:00:00.000 : en:Chapter 01
00:16:02.169 : en:Chapter 02
00:30:46.469 : en:Chapter 03
00:45:17.214 : en:Chapter 04
00:49:56.034 : en:Chapter 05
01:07:58.074 : en:Chapter 06
01:15:03.540 : en:Chapter 07
01:33:27.977 : en:Chapter 08
Источник http://BlaTor.org

Трекер:  [ 14-Янв-2020 21:40 ]

  

Скачать .torrent

Размер .torrent файла 14 KB


Размер: 2.79 GB
Хэш (hash) релиза: a7ee6e9efb0c52809319e2bdfad2a710b414e8e7
Подписка на обновления:

Торренты, похожие на Подсобка дьявола The Shed скачать торрент

Форум Название Автор Размер S L Добавлен
Зарубежные фильмы 2016-2020 (Новинки зарубежного кино) ·%· Подсобка дьявола / The Shed (2019) BDRip от Twister & ExKinoRay | iTunes Galfimbul 15216075001.42 GB 0 0 1579191611

19:20

16-Янв-20

Зарубежные фильмы 2016-2020 (Новинки зарубежного кино) ·%· Подсобка дьявола / The Shed (2019) Blu-Ray Remux 1080p | iTunes Galfimbul 1797417797716.74 GB 0 0 1578916209

14:50

13-Янв-20

Зарубежные фильмы 2016-2020 (Новинки зарубежного кино) ·%· Подсобка дьявола / The Shed (2019) HDRip от Portablius | iTunes Galfimbul 781412352745 MB 0 0 1578157821

20:10

4-Янв-20

Зарубежные фильмы 2016-2020 (Новинки зарубежного кино) ·%· Подсобка дьявола / The Shed (2019) HDRip | iTunes Galfimbul 15727554561.46 GB 0 0 1578157811

20:10

4-Янв-20

Зарубежные фильмы 2016-2020 (Новинки зарубежного кино) ·%· Подсобка дьявола / The Shed (2019) BDRip 1080p | iTunes Galfimbul 84951600587.91 GB 0 0 1577985614

20:20

2-Янв-20

Зарубежные фильмы 2016-2020 (Новинки зарубежного кино) ·%· Подсобка дьявола / The Shed (2019) WEB-DLRip от Portablius | iTunes Galfimbul 781735936746 MB 0 0 1576136409

10:40

12-Дек-19

Зарубежные фильмы 2016-2020 (Новинки зарубежного кино) ·%· Подсобка дьявола / The Shed (2019) WEB-DL 1080p от селезень | iTunes Galfimbul 64344300405.99 GB 2 0 1576020615

02:30

11-Дек-19

Еще никто не оставлял запись к записи скачать торрент Подсобка дьявола The Shed . Будь первым!

!Обратная связь