Скачать через торрент Терминатор: Темные судьбы Terminator: Dark Fate Фильм бесплатно в хорошем качестве torrent

Скачивайте на UnionPeer.org фильмы через торрент без регистрации. Новинки кино в хорошем качестве через торрент. На UnionPeer.org можно скачать через торрент фильмы 2014 и 2015 годов. Самые новые фильмы.

Скачать торрент Терминатор: Темные судьбы Terminator: Dark Fate бесплатно через .torrent фильм мультфильм сериал

Статистика раздачи
Размер:  4.76 GB   |    Зарегистрирован:  1 месяц 2 дня   |    .torrent скачан:  217 раз   |   
Раздают:  3  
 

Скачать Терминатор: Темные судьбы / Terminator: Dark Fate (2019) WEBRip 1080p | LakeFilms через torrent

 
загрузка...
 
Автор Сообщение

Galfimbul ghost

avatar Galfimbul ghost


Терминатор: Темные судьбы / Terminator: Dark Fate

Год выпуска: 2019
Жанр: Фантастика, боевик, приключения
Выпущено: США, Китай, Paramount Pictures, Twentieth Century Fox, Skydance Media
Режиссер: Тим Миллер
В ролях: Арнольд Шварценеггер, Маккензи Дэвис, Линда Хэмилтон, Эдвард Ферлонг, Гэбриел Луна, Наталия Рейес, Том Хоппер, Диего Бонета, Алисия Боррачеро, Энрике Арсе, Стивен Кри, Ферран Фернандес

О фильме: Сара Коннор превратилась в настоящую охотницу за терминаторами и теперь занимается уничтожением роботов-убийц из будущего. Она считала, что главное — это не дать им добраться до Джона, но теперь появилась Дани Рамос, от выживания которой также зависит судьба человечества. Вместе с ней в бой вступает и загадочная девушка Грейс, смесь человека и машины.



Техданные
Качество: WEBRip (1080p)
Видео: MPEG-4 AVC, ~ 5 000 kb/s, 1920x804, 23.976 FPS
Аудио: AC3, 2 ch, 320 Кбит/с
Продолжительность: 02:08:39
Перевод: Любительский двухголосый закадровый (LakeFilms)
Присутствует реклама!
General
Unique ID : 96962130408818849818931112521681454139 (0x48F23A1F769D53F2A038D4129CE5C43B)
Complete name : E:Terminator.Dark.Fate.2019.1080p.LakeFilms.mkv
Format : Matroska
Format version : Version 4 / Version 2
File size : 4.76 GiB
Duration : 2 h 8 min
Overall bit rate : 5 294 kb/s
Writing application : XviD4PSP 8.0.96
Writing library : Lavf58.29.100
ErrorDetectionType : Per level 1
ENCODING_INFO : MATROSKA,WEBM > MKV Пользовательский

Video
ID : 1
Format : AVC
Format/Info : Advanced Video Codec
Format profile : High@L4
Format settings : CABAC / 4 Ref Frames
Format settings, CABAC : Yes
Format settings, RefFrames : 4 frames
Codec ID : V_MPEG4/ISO/AVC
Duration : 2 h 8 min
Bit rate : 5 000 kb/s
Width : 1 920 pixels
Height : 804 pixels
Display aspect ratio : 2.40:1
Frame rate mode : Constant
Frame rate : 23.976 (24000/1001) FPS
Color space : YUV
Chroma subsampling : 4:2:0
Bit depth : 8 bits
Scan type : Progressive
Bits/(Pixel*Frame) : 0.135
Stream size : 4.38 GiB (92%)
Writing library : x264 core 157 r2958 57baac4
Encoding settings : cabac=1 / ref=1 / deblock=1:-2:-2 / analyse=0x3:0x3 / me=hex / subme=1 / psy=1 / psy_rd=1.00:0.00 / mixed_ref=0 / me_range=16 / chroma_me=1 / trellis=0 / 8x8dct=1 / cqm=0 / deadzone=21,11 / fast_pskip=1 / chroma_qp_offset=0 / threads=5 / lookahead_threads=1 / sliced_threads=0 / nr=0 / decimate=1 / interlaced=0 / bluray_compat=0 / constrained_intra=0 / bframes=3 / b_pyramid=2 / b_adapt=1 / b_bias=0 / direct=1 / weightb=1 / open_gop=0 / weightp=1 / keyint=240 / keyint_min=24 / scenecut=40 / intra_refresh=0 / rc=abr / mbtree=0 / bitrate=5000 / ratetol=1.0 / qcomp=0.60 / qpmin=0 / qpmax=69 / qpstep=4 / ip_ratio=1.40 / pb_ratio=1.30 / aq=1:1.00
Default : Yes
Forced : No
ENCODING_INFO : H264 > X264 ABR 5000kbps Super Fast

Audio
ID : 2
Format : AC-3
Format/Info : Audio Coding 3
Codec ID : A_AC3
Duration : 2 h 8 min
Bit rate mode : Constant
Bit rate : 320 kb/s
Channel(s) : 2 channels
Channel positions : Front: L R
Sampling rate : 48.0 kHz
Frame rate : 31.250 FPS (1536 SPF)
Bit depth : 16 bits
Compression mode : Lossy
Stream size : 294 MiB (6%)
Service kind : Complete Main
Default : Yes
Forced : No
ENCODING_INFO : AAC-LC > AC3 CBR 320kbps
Источник http://BlaTor.org

Трекер:  [ 15-Янв-2020 22:10 ]

  

Скачать .torrent

Размер .torrent файла 12 KB


Размер: 4.76 GB
Хэш (hash) релиза: 4238a784f214443190783fc2e868772f9f15ce08
Подписка на обновления:

Торренты, похожие на Терминатор: Темные судьбы Terminator: Dark Fate скачать торрент

Форум Название Автор Размер S L Добавлен
Зарубежные фильмы 2016-2020 (Новинки зарубежного кино) ·· Терминатор: Тёмные судьбы / Terminator: Dark Fate (2019) HDRip от Portablius | iTunes Galfimbul ghost 786862080750 MB 0 0 1580894412

12:20

5-Фев-20

Зарубежные фильмы 2016-2020 (Новинки зарубежного кино) ·· Терминатор: Темные судьбы / Terminator: Dark Fate (2019) BDRip-HEVC 1080p от XuMuK | D, A | iTunes Galfimbul ghost 64718746096.03 GB 2 0 1580835020

19:50

4-Фев-20

Зарубежные фильмы 2016-2020 (Новинки зарубежного кино) ·· Терминатор: Тёмные судьбы / Terminator: Dark Fate (2019) HDRip от Scarabey | iTunes Galfimbul ghost 22737940482.12 GB 0 0 1580662823

20:00

2-Фев-20

Зарубежные фильмы 2016-2020 (Новинки зарубежного кино) ·· Терминатор: Темные судьбы / Terminator: Dark Fate (2019) BDRip-AVC | D, A Galfimbul ghost 34809711903.24 GB 2 0 1580633420

11:50

2-Фев-20

Зарубежные фильмы 2016-2020 (Новинки зарубежного кино) ·· Терминатор: Тёмные судьбы / Terminator: Dark Fate (2019) BDRip 720p от Scarabey | iTunes Galfimbul ghost 66121433016.16 GB 0 0 1580580612

21:10

1-Фев-20

Зарубежные фильмы 2016-2020 (Новинки зарубежного кино) ·· Терминатор: Тёмные судьбы / Terminator: Dark Fate (2019) BDRip от Twister & ExKinoRay | iTunes Galfimbul ghost 15718056961.46 GB 0 0 1580547627

12:00

1-Фев-20

Зарубежные фильмы 2016-2020 (Новинки зарубежного кино) ·· Терминатор: Тёмные судьбы / Terminator: Dark Fate (2019) BDRip от Twister & ExKinoRay | iTunes Galfimbul ghost 22823987622.13 GB 0 0 1580547618

12:00

1-Фев-20

Зарубежные фильмы 2016-2020 (Новинки зарубежного кино) ·· Терминатор: Тёмные судьбы / Terminator: Dark Fate (2019) BDRip 1080p от Scarabey | iTunes Galfimbul ghost 1446625403613.47 GB 0 0 1580508016

01:00

1-Фев-20

Зарубежные фильмы 2016-2020 (Новинки зарубежного кино) ·· Терминатор: Темные судьбы / Terminator: Dark Fate (2019) BDRip-AVC от ExKinoRay | iTunes Galfimbul ghost 782027752746 MB 0 0 1580500812

23:00

31-Янв-20

Зарубежные фильмы 2016-2020 (Новинки зарубежного кино) ·· Терминатор: Темные судьбы / Terminator: Dark Fate (2019) UHD BDRemux 2160p от селезень | 4K | HDR | Dolby Vision | D, A | iTunes Galfimbul ghost 6723378459762.62 GB 0 0 1580491230

20:20

31-Янв-20

Зарубежные фильмы 2016-2020 (Новинки зарубежного кино) ·· Терминатор: Темные судьбы / Terminator: Dark Fate (2019) HDRip | КПК | iTunes Galfimbul ghost 525226557501 MB 0 0 1580474411

15:40

31-Янв-20

Зарубежные фильмы 2016-2020 (Новинки зарубежного кино) ·· Терминатор: Темные судьбы / Terminator: Dark Fate (2019) UHD BDRip 2160p от селезень | 4K | HDR | D, A | iTunes Galfimbul ghost 2897138014226.98 GB 2 0 1580427628

02:40

31-Янв-20

Зарубежные фильмы 2016-2020 (Новинки зарубежного кино) ·· Терминатор: Темные судьбы / Terminator: Dark Fate (2019) BDRip 720p от ExKinoRay | iTunes Galfimbul ghost 61807467355.76 GB 0 0 1580427620

02:40

31-Янв-20

Зарубежные фильмы 2016-2020 (Новинки зарубежного кино) ·· Терминатор: Темные судьбы / Terminator: Dark Fate (2019) BDRip 1080p от qqss44 & MegaPeer | iTunes Galfimbul ghost 80811860377.53 GB 0 0 1580425210

02:00

31-Янв-20

Зарубежные фильмы 2016-2020 (Новинки зарубежного кино) ·· Терминатор: Темные судьбы / Terminator: Dark Fate (2019) BDRip-AVC | iTunes Galfimbul ghost 15673982191.46 GB 0 0 1580421613

01:00

31-Янв-20

Зарубежные фильмы 2016-2020 (Новинки зарубежного кино) ·· Терминатор: Темные судьбы / Terminator: Dark Fate (2019) BDRip-AVC | iTunes Galfimbul ghost 28310859352.64 GB 2 0 1580421607

01:00

31-Янв-20

Зарубежные фильмы 2016-2020 (Новинки зарубежного кино) ·· Терминатор: Темные судьбы / Terminator: Dark Fate (2019) BDRip от MegaPeer | iTunes Galfimbul ghost 15707196451.46 GB 0 0 1580416224

23:30

30-Янв-20

Зарубежные фильмы 2016-2020 (Новинки зарубежного кино) ·· Терминатор: Темные судьбы / Terminator: Dark Fate (2019) UHD BDRemux 2160p от селезень | 4K | HDR | D, A | iTunes Galfimbul ghost 5792787903353.95 GB 2 0 1580416219

23:30

30-Янв-20

Зарубежные фильмы 2016-2020 (Новинки зарубежного кино) ·· Терминатор: Темные судьбы / Terminator: Dark Fate (2019) BDRemux 1080p от селезень | D, A | iTunes Galfimbul ghost 3872868951236.07 GB 0 0 1580415013

23:10

30-Янв-20

Зарубежные фильмы 2016-2020 (Новинки зарубежного кино) ·· Терминатор: Темные судьбы / Terminator: Dark Fate (2019) BDRip от MegaPeer | iTunes Galfimbul ghost 23438048292.18 GB 0 0 1580415008

23:10

30-Янв-20

Еще никто не оставлял запись к записи скачать торрент Терминатор: Темные судьбы Terminator: Dark Fate . Будь первым!

!Обратная связь