Скачать через торрент Царь зверей The Donkey King Фильм бесплатно в хорошем качестве torrent

Скачивайте на UnionPeer.org фильмы через торрент без регистрации. Новинки кино в хорошем качестве через торрент. На UnionPeer.org можно скачать через торрент фильмы 2014 и 2015 годов. Самые новые фильмы.

Скачать торрент Царь зверей The Donkey King бесплатно через .torrent фильм мультфильм сериал

Статистика раздачи
Размер:  3.1 GB   |    Зарегистрирован:  1 месяц 2 дня   |    .torrent скачан:  75 раз   |   
Раздают:  2  
 

Скачать Царь зверей / The Donkey King (2018) WEB-DL 720p | iTunes через torrent

 
загрузка...
 
Автор Сообщение

Galfimbul ghost

avatar Galfimbul ghost


«За осла ответишь!»

Царь зверей /The Donkey King

Год выхода: 2018
Жанр: Мультфильм, комедия, семейный
Режиссер: Азиз Джиндани
Роли озвучивают: Афзал Кхан, Хина Дильпазир, Гулам Мохиуддин, Адиль Хашми, Файзал Куреши, Джавед Шейх, Шафат Али, Васай Чодри, Шаббир Ян, Ахсан Рахим

О фильме:
«Если ты родился ослом, то не обязательно всю жизнь жить как осел. Мечтай, и твои мечты осуществятся». Получив такое напутствие от отца, осел по имени Мангу с оптимизмом смотрит на жизнь. И однажды ему действительно улыбается удача. В стране грядут выборы нового правителя. По невероятному стечению обстоятельств, претендентов на трон всего двое: он и избалованный принц, которого народ терпеть не может. Казалось бы, дело в шляпе, а корона на голове у ослика! Но сможет ли простой осел из бедной семьи стать царем зверей? Ведь речи произносить его никто не учил, а всё, чем он управлял — это утюг и доска для стирки белья!



Страна: Пакистан
Студия: Talisman Animations
Продолжительность: 01:41:49
Перевод: Профессиональный (полное дублирование) | iTunes

Файл
Качество: WEB-DL 720p
Формат: MKV
Кодек: MPEG-4 AVC
Видео: 1280x536 (2,40:1), 24 fps, MPEG-4 AVC ~ 3977 Кbps avg, 0.242 bit/pixel
Аудио: AC3, 48 kHz, 6 ch, ~384.00 kbps avg | русский | iTunes

Субтитры: Отсутствуют
Общее
Уникальный идентификатор : 293367226235600197858829472037712719067 (0xDCB478FA68026C4099E88E1C95446CDB)
Полное имя : THE_DONKEY_KING (2018) WEB-DL 720p.mkv
Формат : Matroska
Версия формата : Version 4
Размер файла : 3,10 Гбайт
Продолжительность : 1 ч. 41 м.
Общий поток : 4363 Кбит/сек
Название фильма : THE_DONKEY_KING (2018) WEB-DL 720p
Дата кодирования : UTC 2020-01-16 05:01:25
Программа кодирования : mkvmerge v41.0.0 ('Smarra') 64-bit
Библиотека кодирования : libebml v1.3.9 + libmatroska v1.5.2
Обложка : Yes
Attachments : cover.jpg

Видео
Идентификатор : 1
Формат : AVC
Формат/Информация : Advanced Video Codec
Профиль формата : Main@L3.1
Настройки формата : 2 Ref Frames
Параметр CABAC формата : Нет
Параметр RefFrames формата : 2 кадра
Идентификатор кодека : V_MPEG4/ISO/AVC
Продолжительность : 1 ч. 41 м.
Битрейт : 3977 Кбит/сек
Ширина : 1280 пикселей
Высота : 536 пикселей
Соотношение сторон : 2,40:1
Режим частоты кадров : Постоянный
Частота кадров : 24,000 кадра/сек
Цветовое пространство : YUV
Субдискретизация насыщенности : 4:2:0
Битовая глубина : 8 бит
Тип развёртки : Прогрессивная
Бит/(Пиксели*Кадры) : 0.242
Размер потока : 2,83 Гбайт (91%)
Заголовок : THE_DONKEY_KING (2018) WEB-DL 720p
Язык : English
Default : Да
Forced : Нет
Цветовой диапазон : Limited
Основные цвета : BT.709
Характеристики трансфера : BT.709
Коэффициенты матрицы : BT.709

Аудио
Идентификатор : 2
Формат : AC-3
Формат/Информация : Audio Coding 3
Коммерческое название : Dolby Digital
Идентификатор кодека : A_AC3
Продолжительность : 1 ч. 41 м.
Вид битрейта : Постоянный
Битрейт : 384 Кбит/сек
Каналы : 6 каналов
ChannelLayout : L R C LFE Ls Rs
Частота : 48,0 КГц
Частота кадров : 31,250 кадров/сек (1536 SPF)
Метод сжатия : С потерями
Размер потока : 280 Мбайт (9%)
Заголовок : iTunes
Язык : Russian
Default : Да
Forced : Нет

Меню
00:00:00.000 : en:Глава 1
00:09:43.541 : en:Глава 2
00:19:31.874 : en:Глава 3
00:27:44.624 : en:Глава 4
00:37:06.082 : en:Глава 5
00:46:58.332 : en:Глава 6
00:57:11.540 : en:Глава 7
01:07:08.373 : en:Глава 8
01:16:46.581 : en:Глава 9
01:25:19.331 : en:Глава 10
01:33:24.039 : en:Глава 11
Источник http://BlaTor.org

Трекер:  [ 16-Янв-2020 08:40 ]

  

Скачать .torrent

Размер .torrent файла 16 KB


Размер: 3.1 GB
Хэш (hash) релиза: 2c415b55a5b9beec99f9c3456e7299a1eb6a55c0
Подписка на обновления:

Еще никто не оставлял запись к записи скачать торрент Царь зверей The Donkey King . Будь первым!

!Обратная связь