Скачать через торрент Терминатор: Темные судьбы Terminator: Dark Fate Фильм бесплатно в хорошем качестве torrent

Скачивайте на UnionPeer.org фильмы через торрент без регистрации. Новинки кино в хорошем качестве через торрент. На UnionPeer.org можно скачать через торрент фильмы 2014 и 2015 годов. Самые новые фильмы.

Скачать торрент Терминатор: Темные судьбы Terminator: Dark Fate бесплатно через .torrent фильм мультфильм сериал

Статистика раздачи
Размер:  8.97 GB   |    Зарегистрирован:  1 месяц 1 день   |    .torrent скачан:  331 раз   |   
Раздают:  6  
 

Скачать Терминатор: Темные судьбы / Terminator: Dark Fate (2019) BDRip 1080p | L2 через torrent

 
загрузка...
 
Автор Сообщение

Galfimbul ghost

avatar Galfimbul ghost


Терминатор: Темные судьбы /Terminator: Dark Fate

Год выхода: 2019
Жанр: Фантастика, боевик, приключения
Режиссер: Тим Миллер
В ролях: Арнольд Шварценеггер, Маккензи Дэвис, Линда Хэмилтон, Эдвард Ферлонг, Гэбриел Луна, Наталия Рейес, Том Хоппер, Диего Бонета, Алисия Боррачеро, Энрике Арсе, Стивен Кри, Ферран Фернандес, Тристан Ульоа, Том Хоппер, Мануэль Пасифик, Фрайзер Джеймс, Карен Ганьон

О фильме:
Сара Коннор превратилась в настоящую охотницу за терминаторами и теперь занимается уничтожением роботов-убийц из будущего. Она считала, что главное — это не дать им добраться до Джона, но теперь появилась Дани Рамос, от выживания которой также зависит судьба человечества. Вместе с ней в бой вступает и загадочная девушка Грейс, смесь человека и машины.



Страна: США, Китай
Студия: Paramount Pictures, Twentieth Century Fox, Skydance Media
Продолжительность: 02:08:06
Перевод: Любительский двухголосый | LakeFilms

Файл
Кодек: x.264
Качество: BDRip 1080p | Terminator.Dark.Fate.2019.1080p.BluRay.x264-SPARKS
Видео: MPEG-4 AVC, 9134 Kбит/с, 1920x808, 23.976 кадр/с
Аудио #1: Русский (АС3, 2 ch, 256 Кбит/с, 48.0 KHz) Любительский (двухголосый, закадровый) LakeFilms
Аудио #2: Английский (АС3, 6 ch, 640 Кбит/с, 48.0 KHz)
Субтитры: английские
? Без Рекламы!
Трейлер
Источник: Terminator.Dark.Fate.2019.1080p.BluRay.x264-SPARKS
General
Unique ID : 229776322507808953276651277827039197312 (0xACDD4F5C598F733B8D8FF3EE04327880)
Complete name : Terminator.Dark.Fate.2019.BDRip.1080p.mkv
Format : Matroska
Format version : Version 4
File size : 8.97 GiB
Duration : 2 h 8 min
Overall bit rate : 10.0 Mb/s
Encoded date : UTC 2020-01-16 20:17:10
Writing application : mkvmerge v7.1.0 ('Good Love') 64bit built on Jul 27 2014 13:06:55
Writing library : libebml v1.3.0 + libmatroska v1.4.1

Video
ID : 1
Format : AVC
Format/Info : Advanced Video Codec
Format profile : High@L4.1
Format settings : CABAC / 5 Ref Frames
Format settings, CABAC : Yes
Format settings, Reference fra : 5 frames
Codec ID : V_MPEG4/ISO/AVC
Duration : 2 h 8 min
Bit rate : 9 134 kb/s
Width : 1 920 pixels
Height : 808 pixels
Display aspect ratio : 2.40:1
Frame rate mode : Constant
Frame rate : 23.976 (24000/1001) FPS
Color space : YUV
Chroma subsampling : 4:2:0
Bit depth : 8 bits
Scan type : Progressive
Bits/(Pixel*Frame) : 0.246
Stream size : 8.17 GiB (91%)
Writing library : x264 core 159 r2991 1771b55
Encoding settings : cabac=1 / ref=5 / deblock=1:-3:-3 / analyse=0x3:0x113 / me=umh / subme=8 / psy=1 / psy_rd=1.00:0.00 / mixed_ref=1 / me_range=16 / chroma_me=1 / trellis=1 / 8x8dct=1 / cqm=0 / deadzone=21,11 / fast_pskip=1 / chroma_qp_offset=-2 / threads=25 / lookahead_threads=4 / sliced_threads=0 / nr=0 / decimate=1 / interlaced=0 / bluray_compat=0 / constrained_intra=0 / bframes=3 / b_pyramid=2 / b_adapt=1 / b_bias=0 / direct=3 / weightb=1 / open_gop=0 / weightp=2 / keyint=250 / keyint_min=23 / scenecut=40 / intra_refresh=0 / rc_lookahead=50 / rc=2pass / mbtree=1 / bitrate=9134 / ratetol=1.0 / qcomp=0.60 / qpmin=0 / qpmax=69 / qpstep=4 / cplxblur=20.0 / qblur=0.5 / ip_ratio=1.40 / aq=1:1.00
Language : English
Default : Yes
Forced : No

Audio #1
ID : 2
Format : AC-3
Format/Info : Audio Coding 3
Commercial name : Dolby Digital
Codec ID : A_AC3
Duration : 2 h 8 min
Bit rate mode : Constant
Bit rate : 256 kb/s
Channel(s) : 2 channels
Channel layout : L R
Sampling rate : 48.0 kHz
Frame rate : 31.250 FPS (1536 SPF)
Compression mode : Lossy
Stream size : 235 MiB (3%)
Title : LakeFilms
Language : Russian
Service kind : Complete Main
Default : Yes
Forced : No

Audio #2
ID : 3
Format : AC-3
Format/Info : Audio Coding 3
Commercial name : Dolby Digital
Codec ID : A_AC3
Duration : 2 h 8 min
Bit rate mode : Constant
Bit rate : 640 kb/s
Channel(s) : 6 channels
Channel layout : L R C LFE Ls Rs
Sampling rate : 48.0 kHz
Frame rate : 31.250 FPS (1536 SPF)
Compression mode : Lossy
Stream size : 586 MiB (6%)
Language : English
Service kind : Complete Main
Default : No
Forced : No

Text #1
ID : 4
Format : UTF-8
Codec ID : S_TEXT/UTF8
Codec ID/Info : UTF-8 Plain Text
Duration : 1 h 57 min
Bit rate : 32 b/s
Count of elements : 1121
Stream size : 27.9 KiB (0%)
Language : English
Default : No
Forced : No

Text #2
ID : 5
Format : UTF-8
Codec ID : S_TEXT/UTF8
Codec ID/Info : UTF-8 Plain Text
Duration : 1 h 57 min
Bit rate : 39 b/s
Count of elements : 1430
Stream size : 33.6 KiB (0%)
Title : SDH
Language : English
Default : No
Forced : No

Menu
00:00:00.000 : en:00:00:00.000
00:04:19.843 : en:00:04:19.843
00:07:48.927 : en:00:07:48.927
00:11:47.916 : en:00:11:47.916
00:16:56.349 : en:00:16:56.349
00:22:10.663 : en:00:22:10.663
00:29:00.614 : en:00:29:00.614
00:33:25.754 : en:00:33:25.754
00:41:35.493 : en:00:41:35.493
00:47:02.695 : en:00:47:02.695
00:53:08.936 : en:00:53:08.936
00:57:56.807 : en:00:57:56.807
01:05:02.690 : en:01:05:02.690
01:13:07.967 : en:01:13:07.967
01:20:45.591 : en:01:20:45.591
01:27:29.744 : en:01:27:29.744
01:32:48.688 : en:01:32:48.688
01:41:45.850 : en:01:41:45.850
01:49:35.319 : en:01:49:35.319
01:57:58.613 : en:01:57:58.613
Источник http://BlaTor.org

Трекер:  [ 17-Янв-2020 01:00 ]

  

Скачать .torrent

Размер .torrent файла 23 KB


Размер: 8.97 GB
Хэш (hash) релиза: 548ac04b1cbda8ae032d5ccc07d72c8b667b6424
Подписка на обновления:

Торренты, похожие на Терминатор: Темные судьбы Terminator: Dark Fate скачать торрент

Форум Название Автор Размер S L Добавлен
Зарубежные фильмы 2016-2020 (Новинки зарубежного кино) ·· Терминатор: Тёмные судьбы / Terminator: Dark Fate (2019) HDRip от Portablius | iTunes Galfimbul ghost 786862080750 MB 0 0 1580894412

12:20

5-Фев-20

Зарубежные фильмы 2016-2020 (Новинки зарубежного кино) ·· Терминатор: Темные судьбы / Terminator: Dark Fate (2019) BDRip-HEVC 1080p от XuMuK | D, A | iTunes Galfimbul ghost 64718746096.03 GB 2 0 1580835020

19:50

4-Фев-20

Зарубежные фильмы 2016-2020 (Новинки зарубежного кино) ·· Терминатор: Тёмные судьбы / Terminator: Dark Fate (2019) HDRip от Scarabey | iTunes Galfimbul ghost 22737940482.12 GB 0 0 1580662823

20:00

2-Фев-20

Зарубежные фильмы 2016-2020 (Новинки зарубежного кино) ·· Терминатор: Темные судьбы / Terminator: Dark Fate (2019) BDRip-AVC | D, A Galfimbul ghost 34809711903.24 GB 2 0 1580633420

11:50

2-Фев-20

Зарубежные фильмы 2016-2020 (Новинки зарубежного кино) ·· Терминатор: Тёмные судьбы / Terminator: Dark Fate (2019) BDRip 720p от Scarabey | iTunes Galfimbul ghost 66121433016.16 GB 0 0 1580580612

21:10

1-Фев-20

Зарубежные фильмы 2016-2020 (Новинки зарубежного кино) ·· Терминатор: Тёмные судьбы / Terminator: Dark Fate (2019) BDRip от Twister & ExKinoRay | iTunes Galfimbul ghost 15718056961.46 GB 0 0 1580547627

12:00

1-Фев-20

Зарубежные фильмы 2016-2020 (Новинки зарубежного кино) ·· Терминатор: Тёмные судьбы / Terminator: Dark Fate (2019) BDRip от Twister & ExKinoRay | iTunes Galfimbul ghost 22823987622.13 GB 0 0 1580547618

12:00

1-Фев-20

Зарубежные фильмы 2016-2020 (Новинки зарубежного кино) ·· Терминатор: Тёмные судьбы / Terminator: Dark Fate (2019) BDRip 1080p от Scarabey | iTunes Galfimbul ghost 1446625403613.47 GB 0 0 1580508016

01:00

1-Фев-20

Зарубежные фильмы 2016-2020 (Новинки зарубежного кино) ·· Терминатор: Темные судьбы / Terminator: Dark Fate (2019) BDRip-AVC от ExKinoRay | iTunes Galfimbul ghost 782027752746 MB 0 0 1580500812

23:00

31-Янв-20

Зарубежные фильмы 2016-2020 (Новинки зарубежного кино) ·· Терминатор: Темные судьбы / Terminator: Dark Fate (2019) UHD BDRemux 2160p от селезень | 4K | HDR | Dolby Vision | D, A | iTunes Galfimbul ghost 6723378459762.62 GB 0 0 1580491230

20:20

31-Янв-20

Зарубежные фильмы 2016-2020 (Новинки зарубежного кино) ·· Терминатор: Темные судьбы / Terminator: Dark Fate (2019) HDRip | КПК | iTunes Galfimbul ghost 525226557501 MB 0 0 1580474411

15:40

31-Янв-20

Зарубежные фильмы 2016-2020 (Новинки зарубежного кино) ·· Терминатор: Темные судьбы / Terminator: Dark Fate (2019) UHD BDRip 2160p от селезень | 4K | HDR | D, A | iTunes Galfimbul ghost 2897138014226.98 GB 2 0 1580427628

02:40

31-Янв-20

Зарубежные фильмы 2016-2020 (Новинки зарубежного кино) ·· Терминатор: Темные судьбы / Terminator: Dark Fate (2019) BDRip 720p от ExKinoRay | iTunes Galfimbul ghost 61807467355.76 GB 0 0 1580427620

02:40

31-Янв-20

Зарубежные фильмы 2016-2020 (Новинки зарубежного кино) ·· Терминатор: Темные судьбы / Terminator: Dark Fate (2019) BDRip 1080p от qqss44 & MegaPeer | iTunes Galfimbul ghost 80811860377.53 GB 0 0 1580425210

02:00

31-Янв-20

Зарубежные фильмы 2016-2020 (Новинки зарубежного кино) ·· Терминатор: Темные судьбы / Terminator: Dark Fate (2019) BDRip-AVC | iTunes Galfimbul ghost 15673982191.46 GB 0 0 1580421613

01:00

31-Янв-20

Зарубежные фильмы 2016-2020 (Новинки зарубежного кино) ·· Терминатор: Темные судьбы / Terminator: Dark Fate (2019) BDRip-AVC | iTunes Galfimbul ghost 28310859352.64 GB 2 0 1580421607

01:00

31-Янв-20

Зарубежные фильмы 2016-2020 (Новинки зарубежного кино) ·· Терминатор: Темные судьбы / Terminator: Dark Fate (2019) BDRip от MegaPeer | iTunes Galfimbul ghost 15707196451.46 GB 0 0 1580416224

23:30

30-Янв-20

Зарубежные фильмы 2016-2020 (Новинки зарубежного кино) ·· Терминатор: Темные судьбы / Terminator: Dark Fate (2019) UHD BDRemux 2160p от селезень | 4K | HDR | D, A | iTunes Galfimbul ghost 5792787903353.95 GB 2 0 1580416219

23:30

30-Янв-20

Зарубежные фильмы 2016-2020 (Новинки зарубежного кино) ·· Терминатор: Темные судьбы / Terminator: Dark Fate (2019) BDRemux 1080p от селезень | D, A | iTunes Galfimbul ghost 3872868951236.07 GB 0 0 1580415013

23:10

30-Янв-20

Зарубежные фильмы 2016-2020 (Новинки зарубежного кино) ·· Терминатор: Темные судьбы / Terminator: Dark Fate (2019) BDRip от MegaPeer | iTunes Galfimbul ghost 23438048292.18 GB 0 0 1580415008

23:10

30-Янв-20

Еще никто не оставлял запись к записи скачать торрент Терминатор: Темные судьбы Terminator: Dark Fate . Будь первым!

!Обратная связь