Скачать через торрент Книга джунглей The Jungle Book Фильм бесплатно в хорошем качестве torrent

Скачивайте на UnionPeer.org фильмы через торрент без регистрации. Новинки кино в хорошем качестве через торрент. На UnionPeer.org можно скачать через торрент фильмы 2014 и 2015 годов. Самые новые фильмы.

Скачать торрент Книга джунглей The Jungle Book бесплатно через .torrent фильм мультфильм сериал

Статистика раздачи
Размер:  33.61 GB   |    Зарегистрирован:  4 года 1 месяц   |    .torrent скачан:  10 раз   |   
Раздают:  1  
 

Скачать Книга джунглей / The Jungle Book (2016) BDRemux 1080p | D через torrent

 
 
Автор Сообщение

Galfimbul

avatar Galfimbul


Книга джунглей /The Jungle Book

Год выхода: 2016
Жанр: Фэнтези, драма, приключения, ремейк
Режиссер: Джон Фавро
В ролях: Нил Сети, Билл Мюррей, Бен Кингсли, Идрис Эльба, Лупита Нионго, Скарлетт Йоханссон, Джанкарло Эспозито, Кристофер Уокен, Гарри Шендлинг, Брайтон Роуз, Эмджей Энтони, Макс Фавро, Хлоя Хехтер, Эшер Блинкофф, Нокс Ганьон, Саша Шрайбер, Кай Шрайбер, Джон Фавро, Сэм Рэйми, Расселл Питерс

О фильме:
Эта удивительная история повествует о маленьком мальчике, которого вырастили в глухом лесу говорящие животные. Он воспитывался в волчьей стае и постигал законы джунглей под присмотром мудрой пантеры Багиры. Однако, всевозрастающая угроза со стороны тигра Шерхана вынуждает его покинуть родной дом и отправиться в ближайшую деревню к людям. Ему предстоит пройти длинный путь к познанию своего прошлого, преисполненный опасными приключениями и захватывающими встречами с медведем Балу, питоном Каа, обезьяним королем Луи и другими лесными жителями.


Страна: США
Студия: Walt Disney Pictures
Продолжительность: 01:45:54
Перевод: Дублированный

Файл
Кодек: h264
Качество: BDRemux 1080p
Видео: AVC, 1920х1080, VBR, 29800 kbps
Звук:
Аудио #01: 48 kHz, AC3, 5.1, 640 Kbps | Русский
Аудио #02: 48 kHz, DTS-HD MA, 7.1, 5322 Kbps | Русский
Аудио #03: 48 kHz, DTS-HD MA, 5.1, 4319 Kbps | Украинский
Аудио #04: 48 kHz, DTS-HD MA, 7.1, 5356 Kbps | Английский
Аудио #05: 48 kHz, AC3, 2.0, 192 Kbps | Английский (комментарии)
Субтитры: русские, английские
Complete name :The Jungle Book.2016.AVC.BDRemux_1080p.mkv
Format : Matroska
Format version : Version 4
File size : 33.6 GiB
Duration : 1 h 45 min
Overall bit rate mode : Variable
Overall bit rate : 45.4 Mb/s
Encoded date : UTC 2020-01-17 16:28:05
Writing application : mkvmerge v42.0.0 ('Overtime') 64-bit
Writing library : libebml v1.3.10 + libmatroska v1.5.2
Cover : Yes
Attachments : cover.png

Video
ID : 1
Format : AVC
Format/Info : Advanced Video Codec
Format profile : [email protected]
Format settings : CABAC / 4 Ref Frames
Format settings, CABAC : Yes
Format settings, Reference : 4 frames
Codec ID : V_MPEG4/ISO/AVC
Duration : 1 h 45 min
Bit rate mode : Variable
Bit rate : 29.8 Mb/s
Maximum bit rate : 32.0 Mb/s
Width : 1 920 pixels
Height : 1 080 pixels
Display aspect ratio : 16:9
Frame rate mode : Constant
Frame rate : 23.976 (24000/1001) FPS
Color space : YUV
Chroma subsampling : 4:2:0
Bit depth : 8 bits
Scan type : Progressive
Bits/(Pixel*Frame) : 0.599
Stream size : 22.0 GiB (66%)
Language : English
Default : Yes
Forced : No

Audio #1
ID : 2
Format : AC-3
Format/Info : Audio Coding 3
Commercial name : Dolby Digital
Codec ID : A_AC3
Duration : 1 h 45 min
Bit rate mode : Constant
Bit rate : 640 kb/s
Channel(s) : 6 channels
Channel layout : L R C LFE Ls Rs
Sampling rate : 48.0 kHz
Frame rate : 31.250 FPS (1536 SPF)
Compression mode : Lossy
Stream size : 485 MiB (1%)
Title : Dub
Language : Russian
Service kind : Complete Main
Default : Yes
Forced : No

Audio #2
ID : 3
Format : DTS XLL
Format/Info : Digital Theater Systems
Commercial name : DTS-HD Master Audio
Codec ID : A_DTS
Duration : 1 h 45 min
Bit rate mode : Variable
Bit rate : 5 322 kb/s
Channel(s) : 8 channels
Channel layout : C L R LFE Lb Rb Lss Rss
Sampling rate : 48.0 kHz
Frame rate : 93.750 FPS (512 SPF)
Bit depth : 24 bits
Compression mode : Lossless
Stream size : 3.94 GiB (12%)
Title : Dub, custom
Language : Russian
Default : No
Forced : No

Audio #3
ID : 4
Format : DTS XLL
Format/Info : Digital Theater Systems
Commercial name : DTS-HD Master Audio
Codec ID : A_DTS
Duration : 1 h 45 min
Bit rate mode : Variable
Bit rate : 4 139 kb/s
Channel(s) : 6 channels
Channel layout : C L R Ls Rs LFE
Sampling rate : 48.0 kHz
Frame rate : 93.750 FPS (512 SPF)
Bit depth : 24 bits
Compression mode : Lossless
Stream size : 3.06 GiB (9%)
Title : Dub *Disney / Buena Vista*
Language : Ukrainian
Default : No
Forced : No

Audio #4
ID : 5
Format : DTS XLL
Format/Info : Digital Theater Systems
Commercial name : DTS-HD Master Audio
Codec ID : A_DTS
Duration : 1 h 45 min
Bit rate mode : Variable
Bit rate : 5 356 kb/s
Channel(s) : 8 channels
Channel layout : C L R LFE Lb Rb Lss Rss
Sampling rate : 48.0 kHz
Frame rate : 93.750 FPS (512 SPF)
Bit depth : 24 bits
Compression mode : Lossless
Stream size : 3.96 GiB (12%)
Title : Original
Language : English
Default : No
Forced : No

Audio #5
ID : 6
Format : AC-3
Format/Info : Audio Coding 3
Commercial name : Dolby Digital
Codec ID : A_AC3
Duration : 1 h 45 min
Bit rate mode : Constant
Bit rate : 192 kb/s
Channel(s) : 2 channels
Channel layout : L R
Sampling rate : 48.0 kHz
Frame rate : 31.250 FPS (1536 SPF)
Compression mode : Lossy
Stream size : 145 MiB (0%)
Title : Commentary with Director Jon Favreau
Language : English
Service kind : Complete Main
Default : No
Forced : No

Text #1
ID : 7
Format : UTF-8
Codec ID : S_TEXT/UTF8
Codec ID/Info : UTF-8 Plain Text
Duration : 9 min 45 s
Bit rate : 1 b/s
Count of elements : 3
Stream size : 132 Bytes (0%)
Title : Forced
Language : Russian
Default : Yes
Forced : No

Text #2
ID : 8
Format : UTF-8
Codec ID : S_TEXT/UTF8
Codec ID/Info : UTF-8 Plain Text
Duration : 1 h 44 min
Bit rate : 60 b/s
Count of elements : 1107
Stream size : 46.0 KiB (0%)
Language : Russian
Default : No
Forced : No

Text #3
ID : 9
Format : UTF-8
Codec ID : S_TEXT/UTF8
Codec ID/Info : UTF-8 Plain Text
Duration : 1 h 34 min
Bit rate : 42 b/s
Count of elements : 1107
Stream size : 29.3 KiB (0%)
Language : English
Default : No
Forced : No

Text #4
ID : 10
Format : UTF-8
Codec ID : S_TEXT/UTF8
Codec ID/Info : UTF-8 Plain Text
Duration : 1 h 45 min
Bit rate : 128 b/s
Count of elements : 2045
Stream size : 99.4 KiB (0%)
Title : Commentary
Language : English
Default : No
Forced : No

Menu
00:00:00.000 : en:Chapter 01
00:00:48.214 : en:Chapter 02
00:05:15.315 : en:Chapter 03
00:09:02.458 : en:Chapter 04
00:12:42.178 : en:Chapter 05
00:16:34.451 : en:Chapter 06
00:21:20.028 : en:Chapter 07
00:27:15.133 : en:Chapter 08
Источник http://BlaTor.org

Внимание! AdBlock блокирует показ скриншотов, все вопросы к разработчикам )))
Трекер:  [ 17-Янв-2020 23:00 ]

  

Скачать .torrent

Размер .torrent файла 84 KB


Размер: 33.61 GB
Хэш (hash) релиза: 397007f4c192659e641af8b50774c0f0e5917efb
Подписка на обновления:

Торренты, похожие на Книга джунглей The Jungle Book скачать торрент

Форум Название Автор Размер S L Добавлен
Зарубежные фильмы 2016-2019 (Новинки зарубежного кино) ·%· Книга джунглей / The Jungle Book (2016) UHD BDRemux 2160p от селезень | 4K | HDR | Лицензия Galfimbul 5588474264652.05 GB 0 0 1579024809

21:00

14-Янв-20

Зарубежные фильмы 2016-2019 (Новинки зарубежного кино) ·%· Книга джунглей / The Jungle Book (2016) UHD BDRip 2160p от селезень | 4K | HDR | Лицензия Galfimbul 1539875142014.34 GB 0 0 1578666650

17:30

10-Янв-20

Зарубежные фильмы 2016-2019 (Новинки зарубежного кино) ·%· Книга джунглей / The Jungle Book (2016) BDRip-HEVC 1080p | Лицензия Galfimbul 69360475866.46 GB 0 0 1553426430

14:20

24-Мар-19

Зарубежные фильмы 2016-2019 (Новинки зарубежного кино) ·%· Книга джунглей / The Jungle Book (2016) BDRip-HEVC 1080p | Лицензия Galfimbul 77107430257.18 GB 0 0 1548423011

16:30

25-Янв-19

Зарубежные фильмы 2016-2019 (Новинки зарубежного кино) ·· Книга джунглей / The Jungle Book (Джон Фавро / Jon Favreau) [2016, США, Великобритания, фэнтези, приключения, семейный, BDRip] AVO (Юрий Сербин) Galfimbul 15734845441.47 GB 0 0 1514709015

11:30

31-Дек-17

Зарубежные фильмы до 2016 ·· Книга джунглей / The Jungle Book (Джон Фавро / Jon Favreau) [2016, Великобритания, США, фэнтези, драма, приключения, семейный, BD> DVD5 (Custom)] DUB + Sub Rus / Eng + Original Eng Galfimbul 46842327044.36 GB 0 0 1485114416

22:46

22-Янв-17

Зарубежные фильмы до 2016 ·· Книга джунглей / The Jungle Book (Джон Фавро / Jon Favreau) [2016, Великобритания, США, фэнтези, драма, приключения, семейный, BD> DVD9 (Custom)] DUB + AVO + Sub Rus / Eng + Original Eng Galfimbul 80681267207.51 GB 0 0 1484506836

22:00

15-Янв-17

Зарубежные фильмы 2016-2019 (Новинки зарубежного кино) ·· Книга джунглей / The Jungle Book (Джон Фавро / Jon Favreau) [2016, Великобритания, США, фэнтези, драма, приключения, BDRip-AVC] Dub + Original + Sub (rus, eng) Galfimbul 31505654082.93 GB 0 0 1473172625

17:37

6-Сен-16

Зарубежные фильмы 2016-2019 (Новинки зарубежного кино) ·· Книга джунглей / The Jungle Book (Джон Фавро / Jon Favreau) [2016, Великобритания, США, фэнтези, драма, приключения, BDRip-AVC] Dub + Original + Sub (rus, eng) Galfimbul 43466442314.05 GB 0 0 1473172621

17:37

6-Сен-16

Зарубежные фильмы 2016-2019 (Новинки зарубежного кино) ·· Книга джунглей / The Jungle Book (Джон Фавро / Jon Favreau) [2016, Великобритания, США, фэнтези, драма, приключения, семейный, BDRip] Dub (CEE) + Original Eng + subs (Rus, Eng) Galfimbul 23450700532.18 GB 0 0 1473172461

17:34

6-Сен-16

Зарубежные фильмы до 2016 ·· Книга джунглей / The Jungle Book (Джон Фавро / Jon Favreau) [2016, Великобритания, США, фэнтези, драма, приключения, BDRip 1080p] Dub [CEE] + Sub Rus, Eng + Original Eng Galfimbul 1775296389416.53 GB 0 0 1472646002

15:20

31-Авг-16

Зарубежные фильмы 2016-2019 (Новинки зарубежного кино) ·· Книга джунглей / The Jungle Book (Джон Фавро / Jon Favreau) [2016, Великобритания, США, фэнтези, драма, приключения, семейный, Blu-Ray CEE] Лицензия Galfimbul 4278918494439.85 GB 0 0 1472543364

10:49

30-Авг-16

Зарубежные фильмы до 2016 ·· Книга джунглей / The Jungle Book (Джон Фавро / Jon Favreau) [2016, Великобритания, США, фэнтези, драма, приключения, семейный, Blu-ray disc 1080p ] [CEE] Dub + Sub Eng, Rus, Cze, Hin, Pol + Original Eng Galfimbul 4278918494439.85 GB 0 0 1472502771

23:32

29-Авг-16

Трейлеры и дополнительные материалы ·· Книга Джунглей / The Jungle Book (Джон Фавро / Jon Favreau) [2016, Драма | Приключени, BDRip 720p] дополнительные материалы Galfimbul 15106935261.41 GB 0 0 1472471429

14:50

29-Авг-16

Зарубежные фильмы до 2016 ·· Книга джунглей / The Jungle Book (Джон Фавро / Jon Favreau) [2016, Великобритания, США, фэнтези, драма, приключения, семейный, BDRip 720p] Dub + Sub Rus, Eng + Original Eng Galfimbul 82161587517.65 GB 0 0 1472322310

21:25

27-Авг-16

Зарубежные фильмы 2016-2019 (Новинки зарубежного кино) ·· Книга джунглей / The Jungle Book (Джон Фавро) [2016, фэнтези, драма, приключения, семейный, BDRip 1080p] Лицензия Galfimbul 1775296389416.53 GB 0 0 1472303797

16:16

27-Авг-16

Зарубежные фильмы 2016-2019 (Новинки зарубежного кино) ·· Книга джунглей / The Jungle Book (Джон Фавро) [2016, фэнтези, драма, приключения, семейный, BDRip 720p] Лицензия Galfimbul 95661349548.91 GB 0 0 1472298339

14:45

27-Авг-16

Зарубежные фильмы до 2016 ·· Книга джунглей / The Jungle Book (Джон Фавро / Jon Favreau) [2016, Великобритания, США, фэнтези, драма, приключения, семейный, BDRip 720p] Dub (iTunes) + Sub Rus, Eng + Original Eng Galfimbul 80135084797.46 GB 0 0 1471727952

00:19

21-Авг-16

Зарубежные фильмы до 2016 ·· Книга джунглей / The Jungle Book (Джон Фавро / Jon Favreau) [2016, Великобритания, США, фэнтези, драма, приключения, семейный, BDRip 1080p] Dub (iTunes) + Ukr + Original Eng + Sub (Rus, Eng) Galfimbul 1670781549115.56 GB 0 0 1471727943

00:19

21-Авг-16

Еще никто не оставлял запись к записи скачать торрент Книга джунглей The Jungle Book . Будь первым!

!Обратная связь