Скачать через торрент 1917 1917 Фильм бесплатно в хорошем качестве torrent

Скачивайте на UnionPeer.org фильмы через торрент без регистрации. Новинки кино в хорошем качестве через торрент. На UnionPeer.org можно скачать через торрент фильмы 2014 и 2015 годов. Самые новые фильмы.

Скачать торрент 1917 1917 бесплатно через .torrent фильм мультфильм сериал

Статистика раздачи
Размер:  1.41 GB   |    Зарегистрирован:  6 месяцев   |    .torrent скачан:  348 раз   |   
Раздают:  1  
 

Скачать 1917 / 1917 (2019) DVDScr-AVC | L2 через torrent

 
Sprinthost
загрузка...
 
Автор Сообщение

Galfimbul ghost

avatar Galfimbul ghost


1917 /1917

Год выхода: 2019
Жанр: Военный, история, драма
Режиссер: Сэм Мендес
В ролях: Эндрю Скотт, Бенедикт Камбербэтч, Колин Фёрт, Ричард Мэдден, Дин-Чарльз Чепмен, Джордж МакКэй, Марк Стронг, Дэниэл Мейс, Эдриан Скарборо, Крис Уолли, Пип Картер, Энди Аполло, Пол Тинто, Джозеф Дэвис, Билли Постлтуэйт, Гэбриел Акувудике

О фильме:
1917 год, разгар Первой мировой войны. Двум юным солдатам поручают смертельно опасную миссию. Они должны пересечь вражескую территорию и доставить секретное сообщение, которое предотвратит неминуемую гибель сотен солдат… Смогут ли они выиграть гонку со временем?



Страна: Великобритания, США
Студия: Amblin Partners, DreamWorks, Neal Street Productions
Продолжительность: 01:58:57
Перевод: Любительский двухголосый | LakeFilms

Файл
Кодек: AVC
Качество: DVDScr-AVC
Видео: MPEG-4 AVC, 1179 Kбит/с, 720x352, 29.970 кадр/с
Аудио #1: Русский (АС3, 2 ch, 256 Кбит/с, 48.0 KHz) Любительский (двухголосый, закадровый) LakeFilms
Аудио #2: Английский (АС3, 2 ch, 256 Кбит/с, 48.0 KHz)
Субтитры: английские
? Без Рекламы!
Источник: 1917.2019.DVDSCR.x264-TOPKEK
General
Unique ID : 210548168610658079073328748819068314104 (0x9E661A2E20124DBFA9E876C435C961F8)
Complete name : 1917.2019.DVDSCR.x264-AVC.mkv
Format : Matroska
Format version : Version 4
File size : 1.41 GiB
Duration : 1 h 58 min
Overall bit rate : 1 694 kb/s
Encoded date : UTC 2020-01-18 23:32:02
Writing application : mkvmerge v7.1.0 ('Good Love') 64bit built on Jul 27 2014 13:06:55
Writing library : libebml v1.3.0 + libmatroska v1.4.1

Video
ID : 1
Format : AVC
Format/Info : Advanced Video Codec
Format profile : High@L3
Format settings : CABAC / 4 Ref Frames
Format settings, CABAC : Yes
Format settings, Reference fra : 4 frames
Codec ID : V_MPEG4/ISO/AVC
Duration : 1 h 58 min
Bit rate : 1 179 kb/s
Width : 720 pixels
Height : 352 pixels
Display aspect ratio : 2.40:1
Original display aspect ratio : 2.40:1
Frame rate mode : Variable
Frame rate : 23.976 (24000/1001) FPS
Color space : YUV
Chroma subsampling : 4:2:0
Bit depth : 8 bits
Scan type : Progressive
Bits/(Pixel*Frame) : 0.194
Stream size : 1 003 MiB (70%)
Writing library : x264 core 142 r2431 ac76440
Encoding settings : cabac=1 / ref=3 / deblock=1:0:0 / analyse=0x3:0x113 / me=hex / subme=7 / psy=1 / psy_rd=1.00:0.00 / mixed_ref=1 / me_range=16 / chroma_me=1 / trellis=1 / 8x8dct=1 / cqm=0 / deadzone=21,11 / fast_pskip=1 / chroma_qp_offset=-2 / threads=12 / lookahead_threads=2 / sliced_threads=0 / nr=0 / decimate=1 / interlaced=0 / bluray_compat=0 / constrained_intra=0 / bframes=3 / b_pyramid=2 / b_adapt=1 / b_bias=0 / direct=1 / weightb=1 / open_gop=0 / weightp=2 / keyint=240 / keyint_min=24 / scenecut=40 / intra_refresh=0 / rc_lookahead=40 / rc=crf / mbtree=1 / crf=20.0 / qcomp=0.60 / qpmin=0 / qpmax=69 / qpstep=4 / ip_ratio=1.40 / aq=1:1.00
Language : English
Default : Yes
Forced : No
Color range : Limited
Color primaries : BT.601 NTSC
Transfer characteristics : BT.709
Matrix coefficients : BT.601

Audio #1
ID : 2
Format : AC-3
Format/Info : Audio Coding 3
Commercial name : Dolby Digital
Codec ID : A_AC3
Duration : 1 h 58 min
Bit rate mode : Constant
Bit rate : 256 kb/s
Channel(s) : 2 channels
Channel layout : L R
Sampling rate : 48.0 kHz
Frame rate : 31.250 FPS (1536 SPF)
Compression mode : Lossy
Stream size : 218 MiB (15%)
Title : LakeFilms
Language : Russian
Service kind : Complete Main
Default : Yes
Forced : No

Audio #2
ID : 3
Format : AC-3
Format/Info : Audio Coding 3
Commercial name : Dolby Digital
Codec ID : A_AC3
Duration : 1 h 58 min
Bit rate mode : Constant
Bit rate : 256 kb/s
Channel(s) : 2 channels
Channel layout : L R
Sampling rate : 48.0 kHz
Frame rate : 31.250 FPS (1536 SPF)
Compression mode : Lossy
Stream size : 218 MiB (15%)
Language : English
Service kind : Complete Main
Default : No
Forced : No

Text
ID : 4
Format : UTF-8
Codec ID : S_TEXT/UTF8
Codec ID/Info : UTF-8 Plain Text
Duration : 1 h 48 min
Bit rate : 33 b/s
Count of elements : 814
Stream size : 26.5 KiB (0%)
Language : English
Default : No
Forced : No

Menu
00:00:00.000 : en:Chapter 1
00:13:36.532 : en:Chapter 2
00:23:39.251 : en:Chapter 3
00:30:48.313 : en:Chapter 4
00:40:53.751 : en:Chapter 5
00:54:49.836 : en:Chapter 6
01:02:16.482 : en:Chapter 7
01:12:02.284 : en:Chapter 8
01:23:04.029 : en:Chapter 9
01:32:23.254 : en:Chapter 10
01:41:43.564 : en:Chapter 11
Источник http://BlaTor.org

Внимание! AdBlock блокирует показ скриншотов, все вопросы к разработчикам )))
Трекер:  [ 19-Янв-2020 16:10 ]

  

Скачать .torrent

Размер .torrent файла 14 KB


Размер: 1.41 GB
Хэш (hash) релиза: b5e1809486a09ea6bb9548fc2590fb8a17e4ec06
Подписка на обновления:

Торренты, похожие на 1917 1917 скачать торрент

Форум Название Автор Размер S L Добавлен
Зарубежные фильмы 2016-2019 (Новинки зарубежного кино) ·· 1917 / 1917 (Сэм Мендес / Sam Mendes) [2019, Великобритания, США, военный, история, драма, BDRip-AVC] Dub + AVO (Ю. Сербин) + Sub (Rus, Eng) + Original Eng Galfimbul ghost 34363914733.2 GB 0 0 1593323682

08:54

28-Июн-20

Зарубежные фильмы 2016-2019 (Новинки зарубежного кино) ·%· 1917 / 1917 (2019) BDRip-AVC | D, P, A | iTunes Galfimbul ghost 46312705034.31 GB 0 0 1587656438

18:40

23-Апр-20

Зарубежные фильмы 2016-2019 (Новинки зарубежного кино) ·%· 1917 / 1917 (2019) BDRip-HEVC 1080p от KORSAR | D, P, A Galfimbul ghost 74509380666.94 GB 0 0 1586859689

13:21

14-Апр-20

Зарубежные фильмы 2016-2019 (Новинки зарубежного кино) ·%· 1917 / 1917 (2019) BDRip 1080p от qqss44 & MegaPeer | iTunes Galfimbul ghost 80952351117.54 GB 0 0 1585921212

16:40

3-Апр-20

Зарубежные фильмы 2016-2019 (Новинки зарубежного кино) ·%· 1917 / 1917 (2019) HDRip от ExKinoRay | KПK | iTunes Galfimbul ghost 624545975596 MB 0 0 1585678226

21:10

31-Мар-20

Зарубежные фильмы 2016-2019 (Новинки зарубежного кино) ·%· 1917 / 1917 (2019) HDRip от ExKinoRay | iTunes Galfimbul ghost 783351965747 MB 2 0 1585591821

21:10

30-Мар-20

Зарубежные фильмы 2016-2019 (Новинки зарубежного кино) ·%· 1917 / 1917 (2019) BDRip-HEVC 1080p | iTunes Galfimbul ghost 55835924095.2 GB 0 0 1585492832

17:40

29-Мар-20

Зарубежные фильмы 2016-2019 (Новинки зарубежного кино) ·%· 1917 / 1917 (2019) BDRip-AVC от OlLanDGroup | iTunes Galfimbul ghost 782558913746 MB 0 0 1585332028

21:00

27-Мар-20

Зарубежные фильмы 2016-2019 (Новинки зарубежного кино) ·%· 1917 / 1917 (2019) BDRip от Twister & ExKinoRay | iTunes Galfimbul ghost 15109093361.41 GB 2 0 1585245091

20:51

26-Мар-20

Зарубежные фильмы 2016-2019 (Новинки зарубежного кино) ·%· 1917 / 1917 (2019) BDRip от Twister & ExKinoRay | iTunes Galfimbul ghost 22857759322.13 GB 0 0 1585245010

20:50

26-Мар-20

Зарубежные фильмы 2016-2019 (Новинки зарубежного кино) ·· 1917 / 1917 (2019) BDRip-AVC | iTunes Galfimbul ghost 29793325132.77 GB 0 0 1585132926

13:42

25-Мар-20

Зарубежные фильмы 2016-2019 (Новинки зарубежного кино) ·· 1917 / 1917 (2019) UHD BDRemux 2160p от селезень | 4K | HDR | Dolby Vision | iTunes Galfimbul ghost 7754014773172.21 GB 0 0 1585128012

12:20

25-Мар-20

Зарубежные фильмы 2016-2019 (Новинки зарубежного кино) ·%· 1917 / 1917 (2019) BDRip-AVC от ExKinoRay | iTunes Galfimbul ghost 24547124752.29 GB 0 0 1585084219

00:10

25-Мар-20

Зарубежные фильмы 2016-2019 (Новинки зарубежного кино) ·%· 1917 / 1917 (2019) UHD BDRemux 2160p от селезень | 4K | HDR | Dolby Vision TV | iTunes Galfimbul ghost 6940759354264.64 GB 0 0 1585082412

23:40

24-Мар-20

Зарубежные фильмы 2016-2019 (Новинки зарубежного кино) ·%· 1917 / 1917 (2019) UHD BDRemux 2160p от селезень | 4K | HDR | iTunes Galfimbul ghost 6677335101162.19 GB 0 0 1585078220

22:30

24-Мар-20

Зарубежные фильмы 2016-2019 (Новинки зарубежного кино) ·%· 1917 / 1917 (2019) BDRip от MegaPeer | iTunes Galfimbul ghost 15098015841.41 GB 0 0 1585077629

22:20

24-Мар-20

Зарубежные фильмы 2016-2019 (Новинки зарубежного кино) ·%· 1917 / 1917 (2019) BDRip от MegaPeer | iTunes Galfimbul ghost 22865260642.13 GB 0 0 1585076415

22:00

24-Мар-20

Зарубежные фильмы 2016-2019 (Новинки зарубежного кино) ·%· 1917 / 1917 (2019) BDRip 1080p от селезень | iTunes Galfimbul ghost 1319608774112.29 GB 0 0 1585075831

21:50

24-Мар-20

Зарубежные фильмы 2016-2019 (Новинки зарубежного кино) ·%· 1917 / 1917 (2019) BDRip 720p от селезень | iTunes Galfimbul ghost 62684443265.84 GB 2 0 1585075824

21:50

24-Мар-20

Зарубежные фильмы 2016-2019 (Новинки зарубежного кино) ·%· 1917 / 1917 (2019) BDRemux 1080p от селезень | iTunes Galfimbul ghost 3386255433231.54 GB 0 0 1585075816

21:50

24-Мар-20

dpd RU

Еще никто не оставлял запись к записи скачать торрент 1917 1917 . Будь первым!

!Обратная связь