Скачать через торрент Балканский рубеж Фильм бесплатно в хорошем качестве torrent

Скачивайте на UnionPeer.org фильмы через торрент без регистрации. Новинки кино в хорошем качестве через торрент. На UnionPeer.org можно скачать через торрент фильмы 2014 и 2015 годов. Самые новые фильмы.

Скачать торрент Балканский рубеж бесплатно через .torrent фильм мультфильм сериал

Статистика раздачи
Размер:  11.65 GB   |    Зарегистрирован:  7 месяцев   |    .torrent скачан:  68 раз   |   
Раздают:  1  
 

Скачать Балканский рубеж (2019) BDRip 1080p от HDReactor через torrent

 
Sprinthost
загрузка...
 
Автор Сообщение

Galfimbul ghost

avatar Galfimbul ghost


Балканский рубеж

Год выпуска: 2019
Жанр: Боевик, драма, реальные события
Выпущено: Россия, Сербия, Апгрейд Вижн, Блесс-Фильм, Archangel Studios
Режиссер: Андрей Волгин
В ролях: Антон Пампушный, Гоша Куценко, Милош Бикович, Милена Радулович, Равшана Куркова, Кирилл Полухин, Нодар Джанелидзе, Сергей Марин, Гойко Митич, Дмитрий Фрид, Александар Сречкович, Светлана Чуйкина, Миодраг Радонич, Никола Ранделович, Эмир Кустурица, Никита Кологривый, Александар Радойчич, Александар Лазич, Роман Курцын, Ефим Петрунин, Роман Воронцов, Анвар Халилулаев, Всеволод Яшкин, Даниел Ковачевич, Лада Имамович, Данила Дедовец, Василиса Немцова, Аня Алач, Михаил Хмуров, Константин Самоуков, Срджан Тодорович, Кирилл Быркин, Дмитрий Вяткин, Бранка Пуйич, Вероника Волоха, Добрила Стойнич, Олег Морозов, Джордже Маркович

О фильме: Югославия. 1999 год. Российская спецгруппа получает приказ взять под контроль аэродром Слатина в Косово и удерживать его до прихода подкрепления. Но этот стратегический объект крайне важен албанскому полевому командиру и натовским генералам. Группа вынуждена принять неравный бой с террористами. К аэродрому устремляются российские миротворцы и силы НАТО. Мир вновь близок к большой войне. Но командиру спецгруппы Андрею Шаталову не до политики: в аэропорту среди заложников его любимая девушка Ясна...



Продолжительность: 02:31:05
Язык: Русский

Файл
Качество: BDRip (1080p)
Видео: MPEG-4 AVC, 10.4 Мбит/с, 1920x800
Аудио: AC3, 6 ch, 640 Кбит/с
Звук получен с французского трансфера путём замены не переведённых фраз на центре декодированного DTS HD-MA и переконвертирован в AC3 (640 кбит/с)
Спектр центрального канала до перекодировки в AC3:

Восстановлены все надписи (география, хронология) имевшиеся на WEB-DL, но "утерянные" на французе. Англоязычние примечания заменены русскоязычными (см. семпл).
Полное имя : J:The.Balkan.Line.2019.BDRip.1080p.HDReactor.mkv
Формат : Matroska
Версия формата : Version 2
Размер файла : 11,6 Гбайт
Продолжительность : 2 ч. 31 м.
Общий поток : 11,0 Мбит/сек
Название фильма : ~V ad~
Дата кодирования : UTC 2020-01-23 19:59:47
Программа кодирования : mkvmerge v6.5.0 ('Isn't she lovely') built on Oct 20 2013 12:50:05
Библиотека кодирования : libebml v1.3.0 + libmatroska v1.4.1
Обложка : Yes
Attachments : cover.jpg

Видео
Идентификатор : 1
Формат : AVC
Формат/Информация : Advanced Video Codec
Профиль формата : High@L4.1
Настройки формата : CABAC / 5 Ref Frames
Параметр CABAC формата : Да
Параметр RefFrames формата : 5 кадров
Идентификатор кодека : V_MPEG4/ISO/AVC
Продолжительность : 2 ч. 31 м.
Битрейт : 10,4 Мбит/сек
Ширина : 1920 пикселей
Высота : 800 пикселей
Соотношение сторон : 2,40:1
Режим частоты кадров : Постоянный
Частота кадров : 23,976 (24000/1001) кадра/сек
Цветовое пространство : YUV
Субдискретизация насыщенности : 4:2:0
Битовая глубина : 8 бит
Тип развёртки : Прогрессивная
Бит/(Пиксели*Кадры) : 0.282
Размер потока : 10,7 Гбайт (92%)
Заголовок : ~V~
Библиотека кодирования : x264 core 159 r2991 1771b55
Настройки программы : cabac=1 / ref=5 / deblock=1:-3:-3 / analyse=0x3:0x133 / me=umh / subme=11 / psy=1 / psy_rd=1.00:0.00 / mixed_ref=1 / me_range=32 / chroma_me=1 / trellis=2 / 8x8dct=1 / cqm=0 / deadzone=21,11 / fast_pskip=0 / chroma_qp_offset=-2 / threads=12 / lookahead_threads=1 / sliced_threads=0 / nr=0 / decimate=0 / interlaced=0 / bluray_compat=0 / constrained_intra=0 / bframes=11 / b_pyramid=2 / b_adapt=2 / b_bias=0 / direct=3 / weightb=1 / open_gop=0 / weightp=2 / keyint=240 / keyint_min=23 / scenecut=40 / intra_refresh=0 / rc=2pass / mbtree=0 / bitrate=10396 / ratetol=1.0 / qcomp=0.65 / qpmin=0 / qpmax=69 / qpstep=4 / cplxblur=20.0 / qblur=0.5 / ip_ratio=1.18 / pb_ratio=1.22 / aq=3:1.00
Язык : Английский
Default : Да
Forced : Нет

Аудио
Идентификатор : 2
Формат : AC-3
Формат/Информация : Audio Coding 3
Коммерческое название : Dolby Digital
Идентификатор кодека : A_AC3
Продолжительность : 2 ч. 31 м.
Вид битрейта : Постоянный
Битрейт : 640 Кбит/сек
Каналы : 6 каналов
Channel layout : L R C LFE Ls Rs
Частота : 48,0 КГц
Частота кадров : 31,250 кадров/сек (1536 SPF)
Битовая глубина : 16 бит
Метод сжатия : С потерями
Размер потока : 692 Мбайт (6%)
Заголовок : Лицензия
Язык : Русский
Service Kind : Complete Main
Default : Да
Forced : Нет

Меню
00:00:00.000 : :Глава 01
00:08:49.988 : :Глава 02
00:22:11.830 : :Глава 03
00:32:55.599 : :Глава 04
00:47:48.365 : :Глава 05
01:00:28.625 : :Глава 06
01:17:46.579 : :Глава 07
01:31:32.612 : :Глава 08
01:46:26.839 : :Глава 09
02:01:19.272 : :Глава 10
02:14:36.277 : :Глава 11
02:26:42.252 : :Глава 12
x264 [info]: frame I:1649 Avg QP:16.38 size:149957
x264 [info]: frame P:46731 Avg QP:18.33 size: 86890
x264 [info]: frame B:168949 Avg QP:19.51 size: 44221
Источник http://BlaTor.org

Внимание! AdBlock блокирует показ скриншотов, все вопросы к разработчикам )))
Трекер:  [ 24-Янв-2020 00:20 ]

  

Скачать .torrent

Размер .torrent файла 29 KB


Размер: 11.65 GB
Хэш (hash) релиза: 7f55680e48fd3fc692f46081a4f69a31529f762a
Подписка на обновления:

Торренты, похожие на Балканский рубеж скачать торрент

Форум Название Автор Размер S L Добавлен
Российские фильмы 2016-2020 (Новинки русского кино) ·· Балканский рубеж (2019) BDRip от Twister & ExKinoRay | Rus Transfer | Лицензия Galfimbul ghost 15739356921.47 GB 0 0 1581015651

22:00

6-Фев-20

Российские фильмы 2016-2020 (Новинки русского кино) ·· Балканский рубеж (2019) BDRip от Twister & ExKinoRay | Rus Transfer | Лицензия Galfimbul ghost 23437713882.18 GB 0 0 1581015642

22:00

6-Фев-20

Российские фильмы 2016-2020 (Новинки русского кино) ·· Балканский рубеж (2019) Blu-ray 1080p | Rus Transfer | Лицензия Galfimbul ghost 4107928270938.26 GB 0 0 1581003626

18:40

6-Фев-20

Российские фильмы 2016-2020 (Новинки русского кино) ·· Балканский рубеж (2019) BDRip 720p | Rus Transfer | Лицензия Galfimbul ghost 99699982809.29 GB 0 0 1580817619

15:00

4-Фев-20

Российские фильмы 2016-2020 (Новинки русского кино) ·· Балканский рубеж (2019) BDRip 1080p | Rus Transfer | Лицензия Galfimbul ghost 1817761899316.93 GB 0 0 1580817615

15:00

4-Фев-20

Российские фильмы 2016-2020 (Новинки русского кино) ·%· Балканский рубеж (2019) WEB-DLRip 1080p от Талямбы | 60 fps | iTunes Galfimbul ghost 1398149381913.02 GB 0 0 1563549129

18:12

19-Июл-19

Российские фильмы 2016-2020 (Новинки русского кино) ·%· Балканский рубеж (2019) WEB-DLRip от Scarabey | iTunes Galfimbul ghost 23350743042.17 GB 0 0 1556986230

19:10

4-Май-19

Российские фильмы 2016-2020 (Новинки русского кино) ·%· Балканский рубеж (2019) WEB-DLRip от Scarabey | iTunes Galfimbul ghost 15541739521.45 GB 0 0 1556983817

18:30

4-Май-19

Российские фильмы 2016-2020 (Новинки русского кино) ·%· Балканский рубеж (2019) WEB-DLRip от Portablius | iTunes Galfimbul ghost 842663936804 MB 0 0 1556907619

21:20

3-Май-19

Российские фильмы 2016-2020 (Новинки русского кино) ·%· Балканский рубеж (2019) WEB-DLRip-AVC от ExKinoRay | iTunes Galfimbul ghost 11532194201.07 GB 0 0 1556805647

17:00

2-Май-19

Российские фильмы 2016-2020 (Новинки русского кино) ·%· Балканский рубеж (2019) WEB-DLRip-AVC от ExKinoRay | iTunes Galfimbul ghost 26818717662.5 GB 0 0 1556799015

15:10

2-Май-19

Российские фильмы 2016-2020 (Новинки русского кино) ·%· Балканский рубеж (2019) WEB-DLRip-AVC | iTunes Galfimbul ghost 780886727745 MB 0 0 1556794220

13:50

2-Май-19

Российские фильмы 2016-2020 (Новинки русского кино) ·%· Балканский рубеж (2019) WEB-DLRip от MegaPeer | iTunes Galfimbul ghost 15643975681.46 GB 0 0 1556788220

12:10

2-Май-19

Российские фильмы 2016-2020 (Новинки русского кино) ·%· Балканский рубеж (2019) WEB-DLRip от MegaPeer | iTunes Galfimbul ghost 23430676482.18 GB 0 0 1556788211

12:10

2-Май-19

Российские фильмы 2016-2020 (Новинки русского кино) ·%· Балканский рубеж (2019) WEB-DLRip от GeneralFilm | iTunes Galfimbul ghost 15659110401.46 GB 0 0 1556770209

07:10

2-Май-19

Российские фильмы 2016-2020 (Новинки русского кино) ·%· Балканский рубеж (2019) WEB-DLRip от GeneralFilm | iTunes Galfimbul ghost 21437808642 GB 0 0 1556764287

05:31

2-Май-19

Российские фильмы 2016-2020 (Новинки русского кино) ·%· Балканский рубеж (2019) WEB-DLRip-AVC от GeneralFilm | iTunes Galfimbul ghost 26937624182.51 GB 0 0 1556761280

04:41

2-Май-19

Российские фильмы 2016-2020 (Новинки русского кино) ·%· Балканский рубеж (2019) WEB-DL 1080p | iTunes Galfimbul ghost 55768945775.19 GB 0 0 1556749209

01:20

2-Май-19

dpd RU

Еще никто не оставлял запись к записи скачать торрент Балканский рубеж . Будь первым!

!Обратная связь