Скачать через торрент Коридор бессмертия Фильм бесплатно в хорошем качестве torrent

Скачивайте на UnionPeer.org фильмы через торрент без регистрации. Новинки кино в хорошем качестве через торрент. На UnionPeer.org можно скачать через торрент фильмы 2014 и 2015 годов. Самые новые фильмы.

Скачать торрент Коридор бессмертия бесплатно через .torrent фильм мультфильм сериал

Статистика раздачи
Размер:  1.46 GB   |    Зарегистрирован:  6 месяцев   |    .torrent скачан:  105 раз   |   
Раздают:  1  
 

Скачать Коридор бессмертия (2019) WEB-DLRip от GeneralFilm | iTunes через torrent

 
Sprinthost
загрузка...
 
Автор Сообщение

Galfimbul ghost

avatar Galfimbul ghost


Год выпуска: 2019
Жанр: Драма, военный, история
Выпущено: Россия, Студия «Стелла»
Режиссер: Федор Попов
В ролях: Артем Алексеев, Анастасия Цибизова, Игорь Ясулович, Артём Мельничук, Александр Яценко, Дарья Екамасова, Анатолий Горячев, Александр Обласов, Светлана Смирнова-Кацагаджиева, Тагир Рахимов

О фильме: Вчерашняя ленинградская школьница Маша Яблочкина после лютой блокадной зимы 1941-1942 года приходит на железнодорожные курсы в надежде выжить и набраться сил. Оттуда девушку отправляют на строительство Шлиссельбургской магистрали, соединяющей город с Большой землей и находящейся в прямой видимости немецкой артиллерии. Так героиня попадает в 48-ю паровозную колонну особого резерва НКПС, которой ценой смертельного риска предстоит доставить в Ленинград 75% всех грузов и военного снаряжения.



Качество: WEB-DLRip
Видео: XviD build 73, 720x304 (2.35:1), 23.976 fps, ~ 1290 Kbps (~ 0.246 bit/pixel)
Аудио: 48.0 kHz, AC3, 2/0 ch, 192 kbps
Продолжительность: 02:19:55
Перевод: Не требуется [Русский]
Cубтитры: нет
General
Complete name : D:RazdachiKoridor.Bessmertija.2019.WEB-DLRip.GeneralFilm.avi
Format : AVI
Format/Info : Audio Video Interleave
File size : 1.46 GiB
Duration : 2 h 19 min
Overall bit rate : 1 492 kb/s
Writing application : VirtualDubMod 1.5.10.3 | www.virtualdub-fr.org || (build 2550/release)
Writing library : VirtualDubMod build 2550/release

Video
ID : 0
Format : MPEG-4 Visual
Format profile : Advanced Simple@L5
Format settings : BVOP1 / Custom Matrix
Format settings, BVOP : 1
Format settings, QPel : No
Format settings, GMC : No warppoints
Format settings, Matrix : Custom
Codec ID : XVID
Codec ID/Hint : XviD
Duration : 2 h 19 min
Bit rate : 1 290 kb/s
Width : 720 pixels
Height : 304 pixels
Display aspect ratio : 2.35:1
Frame rate : 23.976 (24000/1001) FPS
Color space : YUV
Chroma subsampling : 4:2:0
Bit depth : 8 bits
Scan type : Progressive
Compression mode : Lossy
Bits/(Pixel*Frame) : 0.246
Stream size : 1.26 GiB (86%)
Writing library : XviD 73

Audio
ID : 1
Format : AC-3
Format/Info : Audio Coding 3
Commercial name : Dolby Digital
Codec ID : 2000
Duration : 2 h 19 min
Bit rate mode : Constant
Bit rate : 192 kb/s
Channel(s) : 2 channels
Channel layout : L R
Sampling rate : 48.0 kHz
Frame rate : 31.250 FPS (1536 SPF)
Compression mode : Lossy
Stream size : 192 MiB (13%)
Alignment : Split across interleaves
Interleave, duration : 42 ms (1.00 video frame)
Interleave, preload duratio : 500 ms
Service kind : Complete Main
Источник http://listRutor.org

Внимание! AdBlock блокирует показ скриншотов, все вопросы к разработчикам )))
Трекер:  [ 27-Янв-2020 01:10 ]

  

Скачать .torrent

Размер .torrent файла 15 KB


Размер: 1.46 GB
Хэш (hash) релиза: 9bacd0da15ca058c211c58a368c0d35f7f18aa87
Подписка на обновления:

Торренты, похожие на Коридор бессмертия скачать торрент

Форум Название Автор Размер S L Добавлен
Российские фильмы 2016-2020 (Новинки русского кино) ·%· Коридор бессмертия (2019) WEB-DLRip от Scarabey | iTunes Galfimbul ghost 15545262081.45 GB 0 0 1559843436

20:50

6-Июн-19

Российские фильмы 2016-2020 (Новинки русского кино) ·%· Коридор бессмертия (2019) WEB-DLRip от Generalfilm | КПК | iTunes Galfimbul ghost 558028032532 MB 0 0 1559826623

16:10

6-Июн-19

Российские фильмы 2016-2020 (Новинки русского кино) ·%· Коридор бессмертия (2019) WEB-DLRip-AVC от ExKinoRay | iTunes Galfimbul ghost 11558710701.08 GB 0 0 1559796622

07:50

6-Июн-19

Российские фильмы 2016-2020 (Новинки русского кино) ·%· Коридор бессмертия (2019) WEB-DLRip от Portablius | iTunes Galfimbul ghost 840775680802 MB 0 0 1559752238

19:30

5-Июн-19

Российские фильмы 2016-2020 (Новинки русского кино) ·%· Коридор бессмертия (2019) WEB-DLRip-AVC от Files-x | iTunes Galfimbul ghost 23327797262.17 GB 0 0 1559741412

16:30

5-Июн-19

Российские фильмы 2016-2020 (Новинки русского кино) ·%· Коридор бессмертия (2019) WEB-DLRip от MegaPeer | iTunes Galfimbul ghost 15692820481.46 GB 0 0 1559731884

13:51

5-Июн-19

Российские фильмы 2016-2020 (Новинки русского кино) ·%· Коридор бессмертия (2019) WEB-DLRip от MegaPeer | iTunes Galfimbul ghost 23432990722.18 GB 0 0 1559731854

13:50

5-Июн-19

Российские фильмы 2016-2020 (Новинки русского кино) ·%· Коридор бессмертия (2019) WEB-DL 1080p | iTunes Galfimbul ghost 52138963804.86 GB 0 0 1559729548

13:12

5-Июн-19

Российские фильмы 2016-2020 (Новинки русского кино) ·%· Коридор бессмертия (2019) WEB-DL 720p | iTunes Galfimbul ghost 46431520644.32 GB 0 0 1559729534

13:12

5-Июн-19

dpd RU

Еще никто не оставлял запись к записи скачать торрент Коридор бессмертия . Будь первым!

!Обратная связь